<?xml version="1.0" standalone="no"?>
<!DOCTYPE svg PUBLIC "-//W3C//DTD SVG 1.1//EN" "http://www.w3.org/Graphics/SVG/1.1/DTD/svg11.dtd" >
<svg>
<metadata>
Created by FontForge 20090622 at Tue Mar  5 20:58:28 2013
 By root
Copyright (c) 2011 by monocromo. All rights reserved.
</metadata>
<defs>
<font id="Opificio-Bold" horiz-adv-x="604" >
  <font-face 
    font-family="Opificio"
    font-weight="700"
    font-stretch="normal"
    units-per-em="1000"
    panose-1="2 0 5 6 0 0 0 2 0 4"
    ascent="800"
    descent="-200"
    x-height="500"
    cap-height="700"
    bbox="-141 -290 1008 940"
    underline-thickness="50"
    underline-position="-50"
    unicode-range="U+0020-U+FB02"
  />
<missing-glyph horiz-adv-x="426" 
 />
    <glyph glyph-name=".notdef" horiz-adv-x="426" 
 />
    <glyph glyph-name=".null" horiz-adv-x="0" 
 />
    <glyph glyph-name="nonmarkingreturn" horiz-adv-x="426" 
 />
    <glyph glyph-name="space" unicode=" " horiz-adv-x="335" 
 />
    <glyph glyph-name="space" unicode="&#xa0;" horiz-adv-x="335" 
 />
    <glyph glyph-name="exclam" unicode="!" horiz-adv-x="197" 
d="M157 160h-116v540h116v-540zM163 64q0 -27 -18.5 -45.5t-46.5 -18.5q-27 0 -45.5 18.5t-18.5 45.5q0 28 18.5 46.5t45.5 18.5q28 0 46.5 -18.5t18.5 -46.5z" />
    <glyph glyph-name="quotedbl" unicode="&#x22;" horiz-adv-x="318" 
d="M39 700h109v-200h-109v200zM169 700h109v-200h-109v200z" />
    <glyph glyph-name="numbersign" unicode="#" horiz-adv-x="564" 
d="M542 501v-116h-96l-22 -78h73v-116h-106l-54 -191h-114l54 191h-76l-54 -191h-114l54 191h-66v116h99l22 78h-76v116h109l56 199h114l-56 -199h76l56 199h114l-56 -199h63zM234 307h76l22 78h-76z" />
    <glyph glyph-name="dollar" unicode="$" horiz-adv-x="558" 
d="M224 773h116v-57q48 -10 82 -35t56 -55t32.5 -61.5t11.5 -53.5h-122q-14 62 -60 85v-183q37 -13 72 -30t62.5 -42t44 -61t16.5 -88q0 -44 -15.5 -79.5t-41.5 -62t-62 -43.5t-76 -24v-57h-116v59q-41 9 -78.5 30.5t-65 55t-43.5 78t-14 99.5h120q0 -47 21 -86t60 -57v225
q-32 11 -61.5 24.5t-53.5 33t-42 46t-25 63.5q-5 38 8 73.5t38 64.5t60 50t76 30v58zM416 192q0 35 -21.5 56.5t-54.5 38.5v-187q35 11 55.5 34t20.5 58zM164 507q4 -18 20 -30.5t40 -23.5v145q-34 -13 -50 -38t-10 -53z" />
    <glyph glyph-name="percent" unicode="%" horiz-adv-x="441" 
d="M247 64q0 28 18.5 46.5t45.5 18.5q28 0 46 -18.5t18 -46.5q0 -27 -18 -45.5t-46 -18.5q-27 0 -45.5 18.5t-18.5 45.5zM29 635q0 28 18.5 46.5t45.5 18.5q28 0 46 -18.5t18 -46.5q0 -27 -18 -45.5t-46 -18.5q-27 0 -45.5 18.5t-18.5 45.5zM186 0h-124l226 700h123z" />
    <glyph glyph-name="ampersand" unicode="&#x26;" horiz-adv-x="633" 
d="M439 83l-38 -37q-34 -34 -75.5 -52t-85.5 -18q-43 0 -85 18t-75 51q-30 30 -45 68t-15 80q0 50 23.5 99t71.5 87l32 26q-27 32 -42 59t-15 62q0 32 12 60t32.5 48.5t48 32.5t59.5 12t60 -12t48.5 -32.5t32.5 -48.5t12 -60q0 -46 -21 -76.5t-55 -54.5l-1 -1q-3 -3 -3 -2.5
t1 1t1 1t-3 -1.5v-1l128 -140l87 88l83 -83l-91 -92l80 -88l-86 -77zM362 169l-133 153l-38 -33q-31 -26 -45 -49.5t-14 -46.5q0 -35 32 -65q16 -17 36 -25t41 -8q22 0 42 7.5t37 24.5zM206 527q1 -14 11 -27t21 -23q13 8 26.5 21.5t13.5 27.5q0 15 -10.5 25.5t-25.5 10.5
t-26 -10.5t-10 -24.5z" />
    <glyph glyph-name="quotesingle" unicode="'" horiz-adv-x="188" 
d="M39 700h109v-200h-109v200z" />
    <glyph glyph-name="parenleft" unicode="(" horiz-adv-x="250" 
d="M147 -57q0 -17 9 -26.5t21 -14.5t23.5 -6.5t17.5 -1.5v-111q-38 0 -72 8t-59.5 26.5t-40.5 49t-15 74.5v724q0 47 13.5 77.5t38.5 48.5t59 25t76 7v-113q-11 0 -23 -1.5t-23 -6t-18 -13.5t-7 -24v-722z" />
    <glyph glyph-name="parenright" unicode=")" horiz-adv-x="251" 
d="M103 665q0 15 -7 24t-18 13.5t-23.5 6t-22.5 1.5v113q42 0 76 -7t59 -25t38.5 -48.5t13.5 -77.5v-724q0 -44 -15 -74.5t-40.5 -49t-59.5 -26.5t-72 -8v111q6 0 17.5 1.5t23.5 6.5t21 14.5t9 26.5v722z" />
    <glyph glyph-name="asterisk" unicode="*" horiz-adv-x="280" 
d="M95 646v33h86v-33l30 16l37 -71l-21 -20l27 -16l-49 -80l-24 21v-32h-86v33l-28 -15l-39 67l23 22l-26 14l42 77z" />
    <glyph glyph-name="plus" unicode="+" horiz-adv-x="386" 
d="M372 380v-116h-122v-122h-116v122h-120v116h120v120h116v-120h122z" />
    <glyph glyph-name="comma" unicode="," horiz-adv-x="160" 
d="M15 64q0 28 18.5 46.5t45.5 18.5q28 0 46.5 -18.5t18.5 -46.5v-35q0 -25 -5 -41.5t-22 -30.5q-20 -16 -31.5 -17.5t-15.5 5.5t-2.5 20t7.5 26q1 4 0 5.5t-10 3.5q-17 2 -27 9t-15 16.5t-6.5 19.5t-1.5 19z" />
    <glyph glyph-name="hyphen" unicode="-" horiz-adv-x="438" 
d="M398 359v-116h-358v116h358z" />
    <glyph glyph-name="period" unicode="." horiz-adv-x="184" 
d="M28 64q0 28 18.5 46.5t45.5 18.5q28 0 46 -18.5t18 -46.5q0 -27 -18 -45.5t-46 -18.5q-27 0 -45.5 18.5t-18.5 45.5z" />
    <glyph glyph-name="slash" unicode="/" horiz-adv-x="367" 
d="M132 0h-124l228 700h123z" />
    <glyph glyph-name="zero" unicode="0" horiz-adv-x="775" 
d="M27 339q0 74 28.5 140t77.5 115t114.5 77.5t139.5 28.5t140 -28.5t115 -77.5t77.5 -115t28.5 -140t-28.5 -139.5t-77.5 -114.5t-115 -77.5t-140 -28.5t-139.5 28.5t-114.5 77.5t-77.5 114.5t-28.5 139.5zM143 339q0 -50 19.5 -94.5t52.5 -77.5t77.5 -52.5t94.5 -19.5
t94.5 19.5t77.5 52.5t52.5 77.5t19.5 94.5t-19.5 94.5t-52.5 77.5t-77.5 52.5t-94.5 19.5t-94.5 -19.5t-77.5 -52.5t-52.5 -77.5t-19.5 -94.5z" />
    <glyph glyph-name="one" unicode="1" horiz-adv-x="260" 
d="M233 700v-700h-116v584h-90v116h206z" />
    <glyph glyph-name="two" unicode="2" horiz-adv-x="534" 
d="M428 656q33 -34 49 -76t16 -85t-16.5 -84t-48.5 -73l-230 -222h304v-116h-457v102l301 318q33 37 32 79.5t-32 74.5q-35 31 -79 31t-75 -31q-15 -15 -23 -41t-11 -58h-115q1 55 17 101t50 80t76 50t85 15t84 -17.5t73 -47.5z" />
    <glyph glyph-name="three" unicode="3" horiz-adv-x="602" 
d="M502 700v-1l1 1v-118l-102 -76q63 -20 99.5 -61t52.5 -88t16 -104t-21.5 -107t-59 -87.5t-87.5 -59t-107 -21.5t-107 21.5t-87.5 59t-59.5 87.5q-21 49 -21 106h116q0 -65 43.5 -111.5t115.5 -45.5q79 0 118.5 46t39.5 112q1 77 -56.5 125.5t-147.5 48.5v96l81 59h-270
v118h443z" />
    <glyph glyph-name="four" unicode="4" horiz-adv-x="521" 
d="M416 229h73v-117h-73v-112h-116v112h-287l142 588h119l-114 -471h140v109h116v-109z" />
    <glyph glyph-name="five" unicode="5" horiz-adv-x="596" 
d="M207 504q79 33 162.5 13.5t124.5 -66t59 -95.5t18 -106t-21.5 -107t-59 -87.5t-87.5 -59t-107 -21.5t-107 21.5t-87.5 59t-59.5 87.5q-21 49 -21 106h110q2 -61 48 -107.5t117 -46.5q76 -1 121 47.5t44 107.5q0 79 -47 124t-132 45q-61 -3 -98 -31h-120l62 312h348v-118
h-249z" />
    <glyph glyph-name="six" unicode="6" horiz-adv-x="601" 
d="M28 428q0 57 21.5 117t58.5 96.5t86.5 58t106.5 21.5q64 0 114 -27t93 -69l-81 -82q-28 26 -58 43.5t-68 17.5q-51 0 -91 -29t-57 -96q65 45 148 44q56 1 105.5 -21t86.5 -58.5t58.5 -86t21.5 -106.5t-21.5 -106.5t-58.5 -86t-86.5 -58t-105.5 -21.5q-57 0 -106.5 21.5
t-86.5 58t-58.5 86t-21.5 106.5v177zM144 251q0 -32 12.5 -60.5t34 -49.5t50 -33.5t60.5 -12.5t60.5 12.5t49.5 33.5t33.5 49.5t12.5 60.5t-12.5 60.5t-33.5 49.5t-49.5 33.5t-60.5 12.5t-60.5 -12.5t-50 -33.5t-34 -49.5t-12.5 -60.5z" />
    <glyph glyph-name="seven" unicode="7" horiz-adv-x="547" 
d="M154 0h-135l312 583h-290v117h490z" />
    <glyph glyph-name="eight" unicode="8" horiz-adv-x="607" 
d="M153 572q0 32 12 59.5t32 47.5t47.5 32t58.5 12q32 0 59.5 -12t48 -32t32.5 -47.5t12 -59.5q0 -37 -15 -68q65 -37 104.5 -101t39.5 -144q0 -58 -22 -109t-60 -89t-89 -60t-110 -22q-58 0 -109 22t-89 60t-60 89t-22 109q0 80 39 144t105 101q-14 29 -14 68zM143 259
q0 -33 12.5 -62t34.5 -51t51 -34.5t62 -12.5t62.5 12.5t51.5 34.5t34.5 51t12.5 62q0 50 -27 90t-72 59q-14 6 -29 8.5t-33 3.5q-33 0 -62 -12.5t-51 -34.5t-34.5 -51.5t-12.5 -62.5zM268 567q0 -15 10 -26t25 -11q16 0 26 11.5t10 25.5q0 15 -10 25.5t-26 10.5
q-15 0 -25 -10.5t-10 -25.5z" />
    <glyph glyph-name="nine" unicode="9" horiz-adv-x="601" 
d="M573 272q0 -57 -21.5 -117t-58.5 -96.5t-86.5 -58t-106.5 -21.5q-64 0 -114 27t-93 69l81 82q28 -26 58 -43.5t68 -17.5q51 0 91 29t57 96q-65 -45 -148 -44q-56 -1 -105.5 21t-86.5 58.5t-58.5 86t-21.5 106.5t21.5 106.5t58.5 86t86.5 58t105.5 21.5q57 0 106.5 -21.5
t86.5 -58t58.5 -86t21.5 -106.5v-177zM457 449q0 32 -12.5 60.5t-34 49.5t-50 33.5t-60.5 12.5t-60.5 -12.5t-49.5 -33.5t-33.5 -49.5t-12.5 -60.5t12.5 -60.5t33.5 -49.5t49.5 -33.5t60.5 -12.5t60.5 12.5t50 33.5t34 49.5t12.5 60.5z" />
    <glyph glyph-name="colon" unicode=":" horiz-adv-x="192" 
d="M32 64q0 28 18 46.5t46 18.5t46 -18.5t18 -46.5q0 -27 -18 -45.5t-46 -18.5t-46 18.5t-18 45.5zM32 436q0 27 18 45.5t46 18.5t46 -18.5t18 -45.5q0 -28 -18 -46.5t-46 -18.5t-46 18.5t-18 46.5z" />
    <glyph glyph-name="semicolon" unicode=";" horiz-adv-x="167" 
d="M19 436q0 27 18.5 45.5t45.5 18.5q28 0 46.5 -18.5t18.5 -45.5q0 -28 -18.5 -46.5t-46.5 -18.5q-27 0 -45.5 18.5t-18.5 46.5zM19 64q0 28 18.5 46.5t45.5 18.5q28 0 46.5 -18.5t18.5 -46.5v-35q0 -25 -5 -41.5t-22 -30.5q-20 -16 -31.5 -17.5t-15.5 5.5t-2.5 20t7.5 26
q1 4 0 5.5t-10 3.5q-17 2 -27 9t-15 16.5t-6.5 19.5t-1.5 19z" />
    <glyph glyph-name="less" unicode="&#x3c;" horiz-adv-x="452" 
d="M22 199v105l408 176v-127l-233 -102l233 -101v-128z" />
    <glyph glyph-name="equal" unicode="=" horiz-adv-x="558" 
d="M518 411v-116h-478v116h478zM518 236v-116h-478v116h478z" />
    <glyph glyph-name="greater" unicode="&#x3e;" horiz-adv-x="452" 
d="M22 22v128l232 101l-232 102v127l408 -176v-105z" />
    <glyph glyph-name="question" unicode="?" horiz-adv-x="518" 
d="M317 64q0 -27 -18.5 -45.5t-45.5 -18.5q-28 0 -46 18.5t-18 45.5q0 28 18 46.5t46 18.5q27 0 45.5 -18.5t18.5 -46.5zM194 318h61q28 0 52.5 10.5t42.5 28.5t28.5 42.5t10.5 52.5t-10.5 52.5t-28.5 42.5t-42.5 28.5t-52.5 10.5q-76 0 -119 -69h-121q13 44 37.5 78
t56.5 57.5t69.5 35.5t76.5 12q51 0 96 -19.5t78.5 -53t53 -79t19.5 -96.5q0 -44 -14.5 -83.5t-40.5 -71t-61 -54t-76 -32.5v-50h-116v157z" />
    <glyph glyph-name="at" unicode="@" horiz-adv-x="801" 
d="M655 361q0 51 -20.5 95.5t-55 78t-81.5 52.5t-99 19q-53 0 -99 -20.5t-80 -55t-54 -79.5t-20 -96t20.5 -98t56.5 -83t84.5 -57.5t104.5 -21.5v-116q-80 0 -149.5 31t-121 83t-81.5 120t-30 142t29 140.5t79.5 117t117.5 80t143 29.5t143.5 -28.5t118.5 -77.5t80.5 -115
t29.5 -140v-243q0 -39 -10.5 -65.5t-27.5 -42.5t-40 -23.5t-48 -7.5q-28 0 -51 10t-39.5 28t-25.5 43.5t-9 55.5v35q-7 -5 -14.5 -8t-14.5 -7q-42 -17 -92 -17q-49 0 -92 18.5t-74.5 50t-50 74.5t-18.5 92t18.5 92.5t50 75.5t74.5 50.5t92 18.5t92.5 -18.5t75.5 -50.5
t50.5 -75.5t18.5 -92.5v-238q0 -10 1.5 -15t8.5 -5q8 0 8.5 9t0.5 11v245zM279 354q0 -25 9.5 -46.5t26 -38t38 -26t46.5 -9.5t47 9.5t38.5 26t26 38t9.5 46.5t-9.5 47t-26 38.5t-38.5 26t-47 9.5t-46.5 -9.5t-38 -26t-26 -38.5t-9.5 -47z" />
    <glyph glyph-name="A" unicode="A" horiz-adv-x="590" 
d="M573 0h-125l-82 251h-144l-80 -251h-125l224 700h108zM258 350h75l-38 134z" />
    <glyph glyph-name="B" unicode="B" horiz-adv-x="552" 
d="M272 0h-239v700h201q52 0 96 -11.5t75.5 -36t49.5 -61.5t18 -88q0 -38 -11.5 -72t-41.5 -58q25 -9 43.5 -26.5t30.5 -40t18 -48.5t6 -51q0 -55 -20.5 -94.5t-55 -64.5t-79 -36.5t-91.5 -11.5zM392 208q0 51 -31 70.5t-89 18.5h-119v-176h119q22 0 43.5 4.5t38.5 15
t27.5 27t10.5 40.5zM349 503q-1 24 -11 39.5t-26 24t-36 12t-40 3.5h-83v-167h110q49 2 67.5 27.5t18.5 60.5z" />
    <glyph glyph-name="C" unicode="C" horiz-adv-x="750" 
d="M143 350q0 -52 20 -97.5t54.5 -80t80.5 -54.5t98 -20t98 20.5t81 55.5h151q-23 -43 -56.5 -79t-75.5 -62t-92 -40.5t-106 -14.5q-77 0 -144.5 29.5t-118 80t-80 118t-29.5 144.5q0 76 29.5 144t80 118.5t118 80t144.5 29.5q57 0 107 -16t92.5 -43.5t75.5 -63.5t55 -76
h-152q-36 36 -81 57t-97 21t-98 -20t-80.5 -54t-54.5 -80t-20 -97z" />
    <glyph glyph-name="D" unicode="D" horiz-adv-x="658" 
d="M32 700h244q73 0 136.5 -29t110.5 -78t74.5 -114.5t27.5 -137.5t-27.5 -134.5t-74.5 -108.5t-110.5 -72t-136.5 -26h-244v700zM276 120q48 0 89.5 16.5t73 46t49.5 70t18 88.5q0 47 -18 90.5t-49.5 76.5t-73 52.5t-89.5 19.5h-124v-460h124z" />
    <glyph glyph-name="E" unicode="E" horiz-adv-x="564" 
d="M40 700h484v-120h-364v-210h300v-119h-300v-131h364v-120h-484v700z" />
    <glyph glyph-name="F" unicode="F" horiz-adv-x="557" 
d="M42 700h484v-120h-364v-210h300v-119h-300v-251h-120v700z" />
    <glyph glyph-name="G" unicode="G" horiz-adv-x="780" 
d="M752 370q0 -88 -20 -160.5t-63 -124t-110 -79.5t-161 -28q-77 0 -144.5 29.5t-118 80t-80 118t-29.5 144.5q0 76 29.5 144t80 118.5t118 80t144.5 29.5q64 0 118.5 -18t98 -50t75.5 -75.5t52 -94.5h-134q-15 28 -37.5 49.5t-50 36.5t-59 23t-63.5 8q-52 0 -98 -20
t-80.5 -54t-54.5 -80t-20 -97q0 -52 20 -97t54.5 -79t80.5 -54.5t98 -21.5q94 -3 151.5 37.5t68.5 115.5h-209v119h343z" />
    <glyph glyph-name="H" unicode="H" horiz-adv-x="564" 
d="M405 700h119v-700h-119v251h-245v-251h-120v700h120v-330h245v330z" />
    <glyph glyph-name="I" unicode="I" horiz-adv-x="199" 
d="M39 700h120v-700h-120v700z" />
    <glyph glyph-name="J" unicode="J" horiz-adv-x="546" 
d="M149 248q0 -46 9.5 -76t26.5 -47.5t39.5 -24.5t48.5 -7q25 0 47.5 9.5t39.5 28.5t26.5 48.5t9.5 68.5v332h-300v120h420v-452q0 -50 -14 -98.5t-43 -86.5t-75.5 -61.5t-110.5 -23.5q-56 0 -100.5 17.5t-76 52t-48.5 84.5t-17 116h118z" />
    <glyph glyph-name="K" unicode="K" horiz-adv-x="579" 
d="M546 0h-142l-238 286l-15 -19v-267h-119v700h119v-253l220 253h140l-270 -325z" />
    <glyph glyph-name="L" unicode="L" horiz-adv-x="545" 
d="M523 120v-120h-484v700h120v-580h364z" />
    <glyph glyph-name="M" unicode="M" horiz-adv-x="677" 
d="M531 700h106v-700h-120v480l-179 -244l-178 241v-477h-120v700h106l192 -262z" />
    <glyph glyph-name="N" unicode="N" horiz-adv-x="564" 
d="M405 700h119v-700h-107l-257 440v-440h-120v700h108l257 -440v440z" />
    <glyph glyph-name="O" unicode="O" horiz-adv-x="798" 
d="M27 350q0 76 29.5 144t80.5 118.5t118.5 80t143.5 29.5t144 -29.5t118.5 -80t80 -118.5t29.5 -144q0 -77 -29.5 -144.5t-80 -118t-118.5 -80t-144 -29.5t-143.5 29.5t-118.5 80t-80.5 118t-29.5 144.5zM147 350q0 -52 20 -97.5t54.5 -80t80 -54.5t97.5 -20q51 0 97 20
t80.5 54.5t54.5 80t20 97.5q0 51 -20 97t-54.5 80t-80.5 54t-97 20q-52 0 -97.5 -20t-80 -54t-54.5 -80t-20 -97z" />
    <glyph glyph-name="P" unicode="P" horiz-adv-x="523" 
d="M39 700h220q112 -2 175.5 -58t63.5 -168q0 -59 -17 -101t-48.5 -69t-75.5 -40t-98 -13h-100v-251h-120v700zM382 474q0 59 -33.5 83.5t-88.5 24.5h-101v-214h101q59 0 90.5 23.5t31.5 82.5z" />
    <glyph glyph-name="Q" unicode="Q" horiz-adv-x="792" 
d="M24 350q0 76 29.5 144t80.5 118.5t118.5 80t143.5 29.5t144 -29.5t118.5 -80t80 -118.5t29.5 -144q0 -77 -29 -144t-80 -119q-18 -17 -38 -32.5t-42 -27.5q6 -2 16 -3t24 -1v-120q-56 0 -98 22.5t-61 58.5q-32 -6 -64 -6q-76 0 -143.5 29.5t-118.5 80t-80.5 118
t-29.5 144.5zM144 350q0 -51 19.5 -96.5t52.5 -79.5t77.5 -54.5t95.5 -21.5v98q43 0 77.5 -12t54.5 -31q3 -3 6.5 -7t6.5 -8q10 7 20.5 16t18.5 17q35 35 55 81t20 98q0 51 -20 97t-54.5 80t-80 54t-97.5 20t-97.5 -20t-80 -54t-54.5 -80t-20 -97z" />
    <glyph glyph-name="R" unicode="R" horiz-adv-x="534" 
d="M37 700h220q54 -1 98.5 -15.5t75.5 -42.5t48 -69.5t17 -95.5q0 -55 -20.5 -102t-59.5 -68q12 -5 26.5 -13.5t26.5 -24.5t19.5 -42.5t6.5 -67.5v-159h-120v159q0 27 -9.5 44.5t-24.5 28t-34.5 15t-39.5 4.5h-110v-251h-120v700zM379 478q0 56 -35 82t-86 26h-101v-219h101
q58 1 89.5 27t31.5 84z" />
    <glyph glyph-name="S" unicode="S" horiz-adv-x="567" 
d="M421 192q0 27 -13.5 46.5t-35.5 33.5t-51 25l-58 22q-36 12 -87.5 33t-85.5 57t-43 88q-5 45 13 86t52 72t80 49t97 18q64 0 108.5 -23.5t73 -56.5t42 -69.5t14.5 -61.5h-122q-10 45 -37.5 70t-79.5 27q-30 1 -54 -7.5t-40 -23t-22.5 -33t-2.5 -37.5q3 -15 15 -26t30 -20
t40.5 -17t47.5 -16q42 -14 84.5 -30.5t76.5 -42.5t55.5 -65t21.5 -98q0 -51 -20.5 -91t-55.5 -67t-80.5 -41.5t-94.5 -14.5q-50 0 -97.5 18t-84.5 52.5t-59 84.5t-20 115h120q0 -31 9.5 -59.5t27.5 -49.5t44 -33.5t59 -12.5q60 0 96.5 25.5t36.5 73.5z" />
    <glyph glyph-name="T" unicode="T" horiz-adv-x="555" 
d="M38 580v120h485v-120h-183v-580h-119v580h-183z" />
    <glyph glyph-name="U" unicode="U" horiz-adv-x="557" 
d="M156 220q0 -26 9.5 -48t26 -38.5t38.5 -26t48 -9.5t48.5 9.5t39 26t26 38.5t9.5 48v480h120v-480q0 -51 -18.5 -95t-51.5 -77t-77.5 -51.5t-95.5 -18.5t-95 18.5t-77 51.5t-51.5 77t-18.5 95v480h120v-480z" />
    <glyph glyph-name="V" unicode="V" horiz-adv-x="590" 
d="M17 700h125l153 -473l77 238l76 235h125l-224 -700h-108z" />
    <glyph glyph-name="W" unicode="W" horiz-adv-x="677" 
d="M338 262l-192 -262h-106v700h120v-478l178 241l179 -244v481h120v-700h-106z" />
    <glyph glyph-name="X" unicode="X" horiz-adv-x="584" 
d="M167 0h-136l192 350l-181 350h138l112 -217l110 217h138l-180 -351l192 -349h-136l-124 223z" />
    <glyph glyph-name="Y" unicode="Y" horiz-adv-x="603" 
d="M15 700h134l152 -295l77 149l75 146h135l-224 -427v-273h-125v271z" />
    <glyph glyph-name="Z" unicode="Z" horiz-adv-x="563" 
d="M39 0v101l327 479h-327v120h484v-101l-328 -479h328v-120h-484z" />
    <glyph glyph-name="bracketleft" unicode="[" horiz-adv-x="277" 
d="M33 789h210v-116h-94v-752h94v-116h-210v984z" />
    <glyph glyph-name="backslash" unicode="\" horiz-adv-x="361" 
d="M3 700h124l226 -700h-123z" />
    <glyph glyph-name="bracketright" unicode="]" horiz-adv-x="276" 
d="M243 -195h-210v116h94v752h-94v116h210v-984z" />
    <glyph glyph-name="asciicircum" unicode="^" horiz-adv-x="494" 
d="M195 679h105l176 -408h-127l-102 233l-101 -233h-128z" />
    <glyph glyph-name="underscore" unicode="_" horiz-adv-x="583" 
d="M40 0v116h503v-116h-503z" />
    <glyph glyph-name="grave" unicode="`" horiz-adv-x="231" 
d="M19 679h124l68 -167h-124z" />
    <glyph glyph-name="a" unicode="a" horiz-adv-x="606" 
d="M30 251q0 57 21.5 106.5t58.5 86t86.5 58t106.5 21.5t106.5 -21.5t86 -58t58 -86t21.5 -106.5v-251h-116v28q-69 -49 -156 -49q-62 0 -112.5 21t-86 58t-55 86.5t-19.5 106.5zM147 251q0 -32 12.5 -60.5t33.5 -49.5t49.5 -33.5t60.5 -12.5t60.5 11.5t50 32.5t33.5 49.5
t12 62.5q0 32 -12.5 60.5t-33.5 49.5t-49.5 33.5t-60.5 12.5t-60.5 -12.5t-49.5 -33.5t-33.5 -49.5t-12.5 -60.5z" />
    <glyph glyph-name="b" unicode="b" horiz-adv-x="617" 
d="M37 700h116v-236q13 12 31 22.5t38.5 18.5t42.5 13t44 5q57 0 106.5 -21.5t86 -58t58 -86t21.5 -106.5t-21.5 -106.5t-58 -86t-86 -58t-106.5 -21.5t-106.5 21t-86.5 57.5t-58 86t-21 107.5v449zM153 251q0 -32 12.5 -60.5t33.5 -49.5t49.5 -33.5t60.5 -12.5t60.5 12.5
t49.5 33.5t33.5 49.5t12.5 60.5t-12.5 60.5t-33.5 49.5t-49.5 33.5t-60.5 12.5t-60.5 -12.5t-49.5 -33.5t-33.5 -49.5t-12.5 -60.5z" />
    <glyph glyph-name="c" unicode="c" horiz-adv-x="576" 
d="M141 251q0 -32 12.5 -60.5t33.5 -49.5t49.5 -33.5t60.5 -12.5q39 0 71 14.5t52 42.5h130q-19 -45 -46.5 -78t-60.5 -54t-70 -31t-76 -10q-57 0 -106.5 21.5t-86.5 58t-58.5 86t-21.5 106.5t21.5 106.5t58.5 86t86.5 58t106.5 21.5q37 0 74.5 -9.5t71 -30.5t61.5 -53.5
t47 -78.5h-131q-22 30 -54 43t-69 13q-32 0 -60.5 -12.5t-49.5 -33.5t-33.5 -49.5t-12.5 -60.5z" />
    <glyph glyph-name="d" unicode="d" horiz-adv-x="616" 
d="M578 251q0 -58 -21 -107.5t-58 -86t-86.5 -57.5t-106.5 -21t-106.5 21.5t-86 58t-58 86t-21.5 106.5t21.5 106.5t58 86t86 58t106.5 21.5q22 0 44 -5t42.5 -13t38.5 -18.5t31 -22.5v236h116v-449zM462 251q0 32 -12.5 60.5t-33.5 49.5t-49.5 33.5t-60.5 12.5t-60.5 -12.5
t-49.5 -33.5t-33.5 -49.5t-12.5 -60.5t12.5 -60.5t33.5 -49.5t49.5 -33.5t60.5 -12.5t60.5 12.5t49.5 33.5t33.5 49.5t12.5 60.5z" />
    <glyph glyph-name="e" unicode="e" horiz-adv-x="598" 
d="M143 243q1 -31 14 -58t34 -47t49 -31.5t59 -11.5q52 0 89 25.5t54 68.5h127q-17 -57 -45 -97t-64 -65t-77.5 -36.5t-83.5 -11.5q-57 0 -106.5 21.5t-86.5 58t-58.5 86t-21.5 106.5t21.5 106.5t58.5 86t86.5 58t106.5 21.5q63 0 113 -23t85 -61.5t54.5 -89t20.5 -106.5
h-429zM431 344q-38 64 -132 65q-96 -3 -134 -65h266z" />
    <glyph glyph-name="f" unicode="f" horiz-adv-x="377" 
d="M242 553q0 12 -8 21t-22 9t-22 -9t-8 -21v-194h115v-116h-115v-243h-118v243h-46v116h46v194q0 31 8.5 57.5t26.5 46.5t45.5 31.5t65.5 11.5q40 0 68 -10.5t46 -30t26 -47t8 -59.5v-30h-116v30z" />
    <glyph glyph-name="g" unicode="g" horiz-adv-x="613" 
d="M303 523q43 0 82.5 -13t73.5 -36v26h116v-427q0 -57 -21.5 -106.5t-58 -86t-86 -58t-106.5 -21.5q-85 1 -147 42t-97 96l70 73q45 -55 85 -75t89 -20q51 0 91 30t56 75q-32 -20 -69 -31.5t-78 -11.5q-42 0 -80 12q-52 18 -93.5 52t-67.5 80q-31 58 -31 128
q0 57 21.5 106.5t58 86t86 58t106.5 21.5zM147 251q0 -32 12.5 -60.5t33.5 -49.5t49.5 -33.5t60.5 -12.5q31 1 60 12.5t50.5 33t33.5 51t12 66.5q0 29 -10 53q-20 42 -58.5 69t-87.5 27q-32 0 -60.5 -12.5t-49.5 -33.5t-33.5 -49.5t-12.5 -60.5z" />
    <glyph glyph-name="h" unicode="h" horiz-adv-x="528" 
d="M36 700h118v-208q50 31 109 31q51 0 93 -18t72 -49t46.5 -72.5t16.5 -88.5v-295h-117l-1 296q0 22 -8.5 42t-23.5 35t-35 23.5t-43 8.5q-21 0 -40.5 -9t-34.5 -24.5t-24 -35.5t-9 -41v-295h-119v700z" />
    <glyph glyph-name="i" unicode="i" horiz-adv-x="196" 
d="M38 500h116v-500h-116v500zM24 627q0 32 21 53t51 21q32 0 53 -21t21 -53q0 -30 -21 -51t-53 -21q-30 0 -51 21t-21 51z" />
    <glyph glyph-name="j" unicode="j" horiz-adv-x="190" 
d="M-23 -29q0 -30 29 -30q14 0 22.5 8.5t8.5 21.5v529h116v-529q1 -35 -10.5 -62.5t-31.5 -46.5t-47.5 -28.5t-58.5 -9.5q-33 0 -60 11.5t-46 31.5t-29.5 47t-10.5 57h118zM22 626q0 32 21 53t51 21q32 0 53 -21t21 -53q0 -30 -21 -51t-53 -21q-30 0 -51 21t-21 51z" />
    <glyph glyph-name="k" unicode="k" horiz-adv-x="457" 
d="M429 0h-147l-130 171q0 -43 0.5 -88.5t0.5 -82.5h-116l-1 700h116v-315l130 115h152l-224 -212z" />
    <glyph glyph-name="l" unicode="l" horiz-adv-x="195" 
d="M39 700h116v-700h-116v700z" />
    <glyph glyph-name="m" unicode="m" horiz-adv-x="869" 
d="M38 500h118v-28q23 27 49 39t60 12q51 0 92.5 -20.5t72.5 -55.5q32 35 77 55.5t95 20.5q47 0 88.5 -18t72 -49t48.5 -72.5t18 -88.5l1 -295h-118l-1 295q0 22 -8.5 42t-23.5 35t-35 24t-42 9q-23 0 -42.5 -9t-34.5 -24t-23.5 -35t-8.5 -42l1 -295h-118l-1 295
q0 23 -8.5 43t-23.5 35t-35.5 23.5t-42.5 8.5q-23 0 -42.5 -9t-34.5 -24.5t-23.5 -35.5t-8.5 -41l1 -295h-118z" />
    <glyph glyph-name="n" unicode="n" horiz-adv-x="530" 
d="M374 295q0 22 -8.5 42t-23.5 35t-35 24t-43 9t-43 -9.5t-35 -24.5t-24 -35t-9 -41l1 -295h-117v500h116v-29q20 25 48 38t63 14q46 0 87.5 -18t73 -49t49.5 -72.5t18 -88.5l1 -295h-118z" />
    <glyph glyph-name="o" unicode="o" horiz-adv-x="599" 
d="M27 251q0 57 21.5 106.5t58.5 86t86.5 58t106.5 21.5t106.5 -21.5t86 -58t58 -86t21.5 -106.5t-21.5 -106.5t-58 -86t-86 -58t-106.5 -21.5t-106.5 21.5t-86.5 58t-58.5 86t-21.5 106.5zM144 251q0 -32 12.5 -60.5t33.5 -49.5t49.5 -33.5t60.5 -12.5t60.5 12.5t49.5 33.5
t33.5 49.5t12.5 60.5t-12.5 60.5t-33.5 49.5t-49.5 33.5t-60.5 12.5t-60.5 -12.5t-49.5 -33.5t-33.5 -49.5t-12.5 -60.5z" />
    <glyph glyph-name="p" unicode="p" horiz-adv-x="611" 
d="M43 250q0 58 21 107.5t58 86t86.5 57.5t106.5 21t106.5 -21.5t86 -58t58 -86t21.5 -106.5t-21.5 -106.5t-58 -86t-86 -58t-106.5 -21.5q-22 0 -44 5t-42.5 13t-38.5 18.5t-31 22.5v-235h-116v448zM159 250q0 -32 12.5 -60.5t33.5 -49.5t49.5 -33.5t60.5 -12.5t60.5 12.5
t49.5 33.5t33.5 49.5t12.5 60.5t-12.5 60.5t-33.5 49.5t-49.5 33.5t-60.5 12.5t-60.5 -12.5t-49.5 -33.5t-33.5 -49.5t-12.5 -60.5z" />
    <glyph glyph-name="q" unicode="q" 
d="M567 -198h-116v235q-13 -12 -31 -22.5t-38.5 -18.5t-42.5 -13t-44 -5q-57 0 -106.5 21.5t-86 58t-58 86t-21.5 106.5t21.5 106.5t58 86t86 58t106.5 21.5t106.5 -21t86.5 -57.5t58 -86t21 -107.5v-448zM451 250q0 32 -12.5 60.5t-33.5 49.5t-49.5 33.5t-60.5 12.5
t-60.5 -12.5t-49.5 -33.5t-33.5 -49.5t-12.5 -60.5t12.5 -60.5t33.5 -49.5t49.5 -33.5t60.5 -12.5t60.5 12.5t49.5 33.5t33.5 49.5t12.5 60.5z" />
    <glyph glyph-name="r" unicode="r" horiz-adv-x="366" 
d="M42 500h116v-50q36 25 82 38.5t101 13.5v-116q-38 0 -71 -12.5t-58 -34t-39.5 -50t-14.5 -60.5v-229h-116v500z" />
    <glyph glyph-name="s" unicode="s" horiz-adv-x="426" 
d="M281 140q1 30 -20.5 43t-63.5 24q-28 7 -55 17t-49.5 26.5t-37.5 41t-19 60.5q-3 36 10 67t38 54t58.5 36.5t71.5 13.5q32 0 60 -11t50 -28.5t36 -39t19 -42.5h-117q-10 19 -52 19q-25 0 -45 -15t-14 -43q4 -17 29.5 -27t76.5 -27q30 -10 56 -24t45.5 -34t30.5 -48
t11 -65q0 -38 -15.5 -67.5t-41.5 -50t-60 -31.5t-71 -11q-33 0 -66.5 12.5t-60 35t-43.5 55t-17 71.5h117q1 -27 20.5 -47.5t51.5 -20.5q30 0 48 18t19 38z" />
    <glyph glyph-name="t" unicode="t" horiz-adv-x="333" 
d="M27 384v116h46v179h116v-179h117v-116h-117v-384h-116v384h-46z" />
    <glyph glyph-name="u" unicode="u" horiz-adv-x="523" 
d="M373 500h116v-272q0 -47 -18 -88t-48.5 -72.5t-72 -49.5t-88.5 -18t-88 18t-72.5 49.5t-49.5 73t-18 88.5v271h116v-272q0 -23 9 -43t24 -35t35.5 -23.5t43.5 -8.5t43 8.5t35 23.5t24 35t9 43v272z" />
    <glyph glyph-name="v" unicode="v" horiz-adv-x="574" 
d="M17 500h127l143 -328l143 328h127l-218 -500h-103z" />
    <glyph glyph-name="w" unicode="w" horiz-adv-x="864" 
d="M710 500h117v-293q0 -47 -18 -88.5t-48.5 -72.5t-72 -49t-88.5 -18q-51 0 -94 20t-75 55q-32 -35 -75 -55t-94 -20q-47 0 -88.5 18t-72 49t-48 72.5t-17.5 88.5v293h116v-293q0 -23 8.5 -43t23.5 -35t35 -24t43 -9q22 0 42.5 9t35.5 24t24 35t9 43v293h118v-293
q2 -49 33 -80t76 -31q22 0 42 9t35 24t24 35t9 43v293z" />
    <glyph glyph-name="x" unicode="x" horiz-adv-x="465" 
d="M164 0h-131l131 250l-131 250h134l65 -122l65 122h134l-133 -250l133 -250h-131l-68 126z" />
    <glyph glyph-name="y" unicode="y" horiz-adv-x="532" 
d="M377 500h116v-278q0 -38 -10 -73.5t-31 -65.5t-52.5 -52t-74.5 -32v-197h-117v198q-75 25 -122 84.5t-48 137.5v278h117l1 -278q0 -23 8.5 -43t23.5 -35t35 -24t43 -9t43 8.5t35 23.5t24 35t9 43v279z" />
    <glyph glyph-name="z" unicode="z" horiz-adv-x="438" 
d="M20 0l202 384h-185v116h380l-205 -384h187v-116h-379z" />
    <glyph glyph-name="braceleft" unicode="{" horiz-adv-x="299" 
d="M208 -44q0 -17 7 -27.5t17.5 -17t22.5 -9t23 -2.5v-117q-38 0 -72 12t-59.5 33.5t-40 50.5t-14.5 62v262q0 16 -11.5 28.5t-27.5 12.5h-32v117h32q20 0 29.5 14.5t9.5 26.5v263q0 34 14.5 63t40 50t59.5 33t72 12v-117q-28 0 -49 -12t-21 -39v-253q0 -15 -1 -31t-4.5 -30
t-11.5 -24.5t-23 -14.5q15 -5 23 -15.5t12 -24.5t4.5 -29.5t0.5 -29.5v-247z" />
    <glyph glyph-name="bar" unicode="|" horiz-adv-x="195" 
d="M39 823h116v-1037h-116v1037z" />
    <glyph glyph-name="braceright" unicode="}" horiz-adv-x="300" 
d="M91 203q0 14 0.5 29.5t4.5 29.5t12 24.5t23 15.5q-15 4 -23 14.5t-11.5 24.5t-4.5 30t-1 31v253q0 27 -21 39t-49 12v117q38 0 72 -12t59.5 -33t40 -50t14.5 -63v-263q0 -12 9.5 -26.5t29.5 -14.5h32v-117h-32q-16 0 -27.5 -12.5t-11.5 -28.5v-262q0 -33 -14.5 -62
t-40 -50.5t-59.5 -33.5t-72 -12v117q11 0 23 2.5t22.5 9t17.5 17t7 27.5v247z" />
    <glyph glyph-name="asciitilde" unicode="~" horiz-adv-x="508" 
d="M29 442h117v-71q0 -15 6 -24t18 -9q18 0 29 13l27 29q15 17 39 30.5t66 13.5q31 0 57.5 -11.5t46.5 -31t31.5 -46t11.5 -57.5v-71h-118v71q0 19 -9 26.5t-21 7.5q-20 0 -32 -14l-25 -30q-14 -16 -35.5 -29.5t-62.5 -13.5q-31 0 -57.5 11.5t-46 31t-31 46t-11.5 57.5v71z
" />
    <glyph glyph-name="exclamdown" unicode="&#xa1;" horiz-adv-x="193" 
d="M157 341h-116v-540h116v540zM163 437q0 27 -18.5 45.5t-46.5 18.5q-27 0 -45.5 -18.5t-18.5 -45.5q0 -28 18.5 -46.5t45.5 -18.5q28 0 46.5 18.5t18.5 46.5z" />
    <glyph glyph-name="cent" unicode="&#xa2;" horiz-adv-x="592" 
d="M247 772h116v-255q60 -13 112 -52.5t83 -113.5h-131q-24 33 -64 47v-294q40 16 64 48h130q-31 -74 -82.5 -114.5t-111.5 -52.5v-250h-116v250q-47 10 -86.5 34t-68 59t-45 79t-16.5 94q0 49 16.5 93t45 79.5t68 59.5t86.5 34v255zM148 251q0 -50 27.5 -89t71.5 -56v290
q-44 -17 -71.5 -56t-27.5 -89z" />
    <glyph glyph-name="sterling" unicode="&#xa3;" horiz-adv-x="400" 
d="M253 553q0 12 -8 21t-22 9t-22 -9t-8 -21v-194h115v-116h-115v-127h175v-116h-293v243h-46v116h46v194q0 31 8.5 57.5t26.5 46.5t45.5 31.5t65.5 11.5q40 0 68 -10.5t46 -30t26 -47t8 -59.5v-30h-116v30z" />
    <glyph glyph-name="yen" unicode="&#xa5;" horiz-adv-x="615" 
d="M547 387v-116h-177v-35h177v-116h-177v-120h-125v120h-176v116h176v35h-176v116h115l-163 313h134l152 -295l152 295h135l-164 -313h117z" />
    <glyph glyph-name="dieresis" unicode="&#xa8;" horiz-adv-x="391" 
d="M35 728q0 27 18 45.5t46 18.5t46 -18.5t18 -45.5q0 -28 -18 -46.5t-46 -18.5t-46 18.5t-18 46.5zM228 728q0 27 18 45.5t46 18.5t46 -18.5t18 -45.5q0 -28 -18 -46.5t-46 -18.5t-46 18.5t-18 46.5z" />
    <glyph glyph-name="copyright" unicode="&#xa9;" horiz-adv-x="798" 
d="M272 352q0 -26 10 -49.5t27.5 -41.5t41 -28.5t49.5 -10.5q45 0 77 24t44 57h98q-10 -44 -31.5 -78t-51 -57.5t-65 -36t-71.5 -12.5q-48 0 -90 18t-74 49.5t-50.5 74t-18.5 91.5t18.5 91.5t50.5 74t74 49.5t90 18q36 0 72.5 -12.5t66.5 -36.5t51.5 -58t28.5 -77h-102
q-14 41 -44.5 61t-72.5 20q-26 0 -49.5 -10.5t-41 -28.5t-27.5 -41.5t-10 -49.5zM27 351q0 76 29.5 144t80 118.5t118 80t144.5 29.5q76 0 144 -29.5t118.5 -80t80 -118.5t29.5 -144q0 -77 -29.5 -144.5t-80 -118t-118.5 -80t-144 -29.5q-77 0 -144.5 29.5t-118 80t-80 118
t-29.5 144.5zM147 351q0 -52 20 -98t54.5 -80t80 -54t97.5 -20q51 0 97 20t80 54t54 80t20 98q0 51 -20 97t-54 80t-80 54t-97 20q-52 0 -97.5 -20t-80 -54t-54.5 -80t-20 -97z" />
    <glyph glyph-name="guillemotleft" unicode="&#xab;" horiz-adv-x="585" 
d="M481 499l81 -82l-177 -168l177 -168l-81 -82l-260 250zM281 499l82 -82l-178 -168l178 -168l-82 -82l-259 250z" />
    <glyph glyph-name="registered" unicode="&#xae;" horiz-adv-x="798" 
d="M272 536h131q33 -1 59 -7.5t44.5 -20.5t28.5 -36.5t10 -55.5q0 -27 -10 -51.5t-29 -35.5q7 -3 14 -13t13 -23t9 -29t2 -32v-59h-107v54q0 7 -1.5 15.5t-5.5 15.5t-10 11t-17 4h-24v-100h-107v363zM404 377q18 0 26.5 6t8.5 22q0 17 -10 23t-25 6h-25v-57h25zM27 351
q0 76 29.5 144t80 118.5t118 80t144.5 29.5q76 0 144 -29.5t118.5 -80t80 -118.5t29.5 -144q0 -77 -29.5 -144.5t-80 -118t-118.5 -80t-144 -29.5q-77 0 -144.5 29.5t-118 80t-80 118t-29.5 144.5zM147 351q0 -52 20 -98t54.5 -80t80 -54t97.5 -20q51 0 97 20t80 54t54 80
t20 98q0 51 -20 97t-54 80t-80 54t-97 20q-52 0 -97.5 -20t-80 -54t-54.5 -80t-20 -97z" />
    <glyph glyph-name="plusminus" unicode="&#xb1;" horiz-adv-x="410" 
d="M384 380v-116h-122v-122h-116v122h-120v116h120v120h116v-120h122zM384 116v-116h-358v116h358z" />
    <glyph glyph-name="acute" unicode="&#xb4;" horiz-adv-x="230" 
d="M143 512h-124l68 167h123z" />
    <glyph glyph-name="mu" unicode="&#xb5;" horiz-adv-x="533" 
d="M377 500h116v-272q0 -47 -18 -88t-48.5 -72.5t-72 -49.5t-88.5 -18q-61 0 -111 29v-227h-116v698h116v-272q0 -23 9 -43t24 -35t35 -23.5t43 -8.5t43 8.5t35 23.5t24 35t9 43v272z" />
    <glyph glyph-name="mu" unicode="&#x3bc;" horiz-adv-x="533" 
d="M377 500h116v-272q0 -47 -18 -88t-48.5 -72.5t-72 -49.5t-88.5 -18q-61 0 -111 29v-227h-116v698h116v-272q0 -23 9 -43t24 -35t35 -23.5t43 -8.5t43 8.5t35 23.5t24 35t9 43v272z" />
    <glyph glyph-name="periodcentered" unicode="&#xb7;" horiz-adv-x="185" 
d="M28 308q0 28 18.5 46t45.5 18q28 0 46 -18t18 -46t-18 -46t-46 -18q-27 0 -45.5 18t-18.5 46z" />
    <glyph glyph-name="cedilla" unicode="&#xb8;" horiz-adv-x="269" 
d="M29 -184h79q2 0 8 1.5t6 12.5t-6 12.5t-8 1.5h-79v216h116v-113q39 -11 66.5 -43t27.5 -74q0 -26 -10 -47.5t-26.5 -38t-38.5 -25.5t-46 -9h-89v106z" />
    <glyph glyph-name="guillemotright" unicode="&#xbb;" horiz-adv-x="585" 
d="M363 249l-260 -250l-81 82l177 168l-177 168l81 82zM562 249l-259 -250l-82 82l178 168l-178 168l82 82z" />
    <glyph glyph-name="questiondown" unicode="&#xbf;" horiz-adv-x="518" 
d="M200 615q0 27 18.5 45.5t45.5 18.5q28 0 46 -18.5t18 -45.5q0 -28 -18 -46.5t-46 -18.5q-27 0 -45.5 18.5t-18.5 46.5zM323 382h-61q-28 0 -52.5 -10.5t-42.5 -28.5t-28.5 -42.5t-10.5 -52.5t10.5 -52.5t28.5 -42.5t42.5 -28.5t52.5 -10.5q76 0 119 69h121
q-14 -44 -38 -78.5t-56 -57.5t-69.5 -35t-76.5 -12q-51 0 -96 19.5t-78.5 53t-53 79t-19.5 96.5q0 44 14.5 83.5t40.5 71t61 54t76 32.5v30h116v-137z" />
    <glyph glyph-name="Agrave" unicode="&#xc0;" horiz-adv-x="592" 
d="M573 0h-125l-82 251h-144l-80 -251h-125l224 700h108zM258 350h75l-38 134zM159 911h124l68 -167h-124z" />
    <glyph glyph-name="Aacute" unicode="&#xc1;" horiz-adv-x="590" 
d="M424 912h-124l-68 -167h124zM573 0h-125l-82 251h-144l-80 -251h-125l224 700h108zM258 350h75l-38 134z" />
    <glyph glyph-name="Acircumflex" unicode="&#xc2;" horiz-adv-x="598" 
d="M577 0h-125l-82 251h-144l-80 -251h-125l224 700h108zM262 350h75l-38 134zM353 939l120 -170h-133l-40 56l-42 -56h-132l119 170h108z" />
    <glyph glyph-name="Atilde" unicode="&#xc3;" horiz-adv-x="590" 
d="M573 0h-125l-82 251h-144l-80 -251h-125l224 700h108zM258 350h75l-38 134zM446 854q-25 -42 -56 -63.5t-63 -21.5q-35 0 -65 17q-3 1 -21 -28l-102 61q24 43 56 64.5t64 21.5q16 0 32 -4t31 -13q2 -2 8.5 5.5t14.5 21.5z" />
    <glyph glyph-name="Adieresis" unicode="&#xc4;" horiz-adv-x="587" 
d="M570 0h-125l-82 251h-144l-80 -251h-125l224 700h108zM255 350h75l-38 134zM130 835q0 27 18 45.5t46 18.5t46 -18.5t18 -45.5q0 -28 -18 -46.5t-46 -18.5t-46 18.5t-18 46.5zM323 835q0 27 18 45.5t46 18.5t46 -18.5t18 -45.5q0 -28 -18 -46.5t-46 -18.5t-46 18.5
t-18 46.5z" />
    <glyph glyph-name="AE" unicode="&#xc6;" horiz-adv-x="824" 
d="M255 700h538v-120h-364v-210h300v-119h-300v-131h364v-120h-484v251h-73l-80 -251h-125zM276 370h33v104z" />
    <glyph glyph-name="Ccedilla" unicode="&#xc7;" horiz-adv-x="770" 
d="M153 350q0 -52 20 -97.5t54.5 -80t80.5 -54.5t98 -20t98 20.5t81 55.5h151q-23 -43 -56.5 -79t-75.5 -62t-92 -40.5t-106 -14.5q-77 0 -144.5 29.5t-118 80t-80 118t-29.5 144.5q0 76 29.5 144t80 118.5t118 80t144.5 29.5q57 0 107 -16t92.5 -43.5t75.5 -63.5t55 -76
h-152q-36 36 -81 57t-97 21t-98 -20t-80.5 -54t-54.5 -80t-20 -97zM336 -177h79q2 0 8 1.5t6 12.5t-6 12.5t-8 1.5h-79v216h116v-113q39 -11 66.5 -43t27.5 -74q0 -26 -10 -47.5t-26.5 -38t-38.5 -25.5t-46 -9h-89v106z" />
    <glyph glyph-name="Egrave" unicode="&#xc8;" horiz-adv-x="539" 
d="M29 700h484v-120h-364v-210h300v-119h-300v-131h364v-120h-484v700zM148 912h124l68 -167h-124z" />
    <glyph glyph-name="Eacute" unicode="&#xc9;" horiz-adv-x="533" 
d="M26 700h484v-120h-364v-210h300v-119h-300v-131h364v-120h-484v700zM388 912h-124l-68 -167h124z" />
    <glyph glyph-name="Ecircumflex" unicode="&#xca;" horiz-adv-x="533" 
d="M26 700h484v-120h-364v-210h300v-119h-300v-131h364v-120h-484v700zM322 915l120 -170h-133l-40 56l-42 -56h-132l119 170h108z" />
    <glyph glyph-name="Edieresis" unicode="&#xcb;" horiz-adv-x="541" 
d="M30 700h484v-120h-364v-210h300v-119h-300v-131h364v-120h-484v700zM116 834q0 27 18 45.5t46 18.5t46 -18.5t18 -45.5q0 -28 -18 -46.5t-46 -18.5t-46 18.5t-18 46.5zM309 834q0 27 18 45.5t46 18.5t46 -18.5t18 -45.5q0 -28 -18 -46.5t-46 -18.5t-46 18.5t-18 46.5z
" />
    <glyph glyph-name="Igrave" unicode="&#xcc;" horiz-adv-x="191" 
d="M36 700h120v-700h-120v700zM-35 912h124l68 -167h-124z" />
    <glyph glyph-name="Iacute" unicode="&#xcd;" horiz-adv-x="201" 
d="M40 700h120v-700h-120v700zM233 912h-124l-68 -167h124z" />
    <glyph glyph-name="Icircumflex" unicode="&#xce;" horiz-adv-x="188" 
d="M40 700h120v-700h-120v700zM155 940l120 -170h-133l-40 56l-42 -56h-132l119 170h108z" />
    <glyph glyph-name="Idieresis" unicode="&#xcf;" horiz-adv-x="194" 
d="M39 700h120v-700h-120v700zM-60 835q0 27 18 45.5t46 18.5t46 -18.5t18 -45.5q0 -28 -18 -46.5t-46 -18.5t-46 18.5t-18 46.5zM133 835q0 27 18 45.5t46 18.5t46 -18.5t18 -45.5q0 -28 -18 -46.5t-46 -18.5t-46 18.5t-18 46.5z" />
    <glyph glyph-name="Eth" unicode="&#xd0;" horiz-adv-x="738" 
d="M118 700h244q72 0 136 -27.5t111 -74.5t74.5 -111t27.5 -136t-27.5 -136t-74.5 -112t-111 -75.5t-136 -27.5h-244v290h-92v120h92v290zM396 410v-120h-159v-170h125q47 0 89 18t73 49.5t49 73.5t18 90q0 47 -18 89t-49 73t-73 49t-89 18h-125v-170h159z" />
    <glyph glyph-name="Ntilde" unicode="&#xd1;" horiz-adv-x="546" 
d="M398 700h119v-700h-107l-257 440v-440h-120v700h108l257 -440v440zM419 854q-25 -42 -56 -63.5t-63 -21.5q-35 0 -65 17q-3 1 -21 -28l-102 61q24 43 56 64.5t64 21.5q16 0 32 -4t31 -13q2 -2 8.5 5.5t14.5 21.5z" />
    <glyph glyph-name="Ograve" unicode="&#xd2;" horiz-adv-x="806" 
d="M31 350q0 76 29.5 144t80.5 118.5t118.5 80t143.5 29.5t144 -29.5t118.5 -80t80 -118.5t29.5 -144q0 -77 -29.5 -144.5t-80 -118t-118.5 -80t-144 -29.5t-143.5 29.5t-118.5 80t-80.5 118t-29.5 144.5zM151 350q0 -52 20 -97.5t54.5 -80t80 -54.5t97.5 -20q51 0 97 20
t80.5 54.5t54.5 80t20 97.5q0 51 -20 97t-54.5 80t-80.5 54t-97 20q-52 0 -97.5 -20t-80 -54t-54.5 -80t-20 -97zM276 936h124l68 -167h-124z" />
    <glyph glyph-name="Oacute" unicode="&#xd3;" horiz-adv-x="815" 
d="M35 350q0 76 29.5 144t80.5 118.5t118.5 80t143.5 29.5t144 -29.5t118.5 -80t80 -118.5t29.5 -144q0 -77 -29.5 -144.5t-80 -118t-118.5 -80t-144 -29.5t-143.5 29.5t-118.5 80t-80.5 118t-29.5 144.5zM155 350q0 -52 20 -97.5t54.5 -80t80 -54.5t97.5 -20q51 0 97 20
t80.5 54.5t54.5 80t20 97.5q0 51 -20 97t-54.5 80t-80.5 54t-97 20q-52 0 -97.5 -20t-80 -54t-54.5 -80t-20 -97zM540 937h-124l-68 -167h124z" />
    <glyph glyph-name="Ocircumflex" unicode="&#xd4;" horiz-adv-x="798" 
d="M27 350q0 76 29.5 144t80.5 118.5t118.5 80t143.5 29.5t144 -29.5t118.5 -80t80 -118.5t29.5 -144q0 -77 -29.5 -144.5t-80 -118t-118.5 -80t-144 -29.5t-143.5 29.5t-118.5 80t-80.5 118t-29.5 144.5zM147 350q0 -52 20 -97.5t54.5 -80t80 -54.5t97.5 -20q51 0 97 20
t80.5 54.5t54.5 80t20 97.5q0 51 -20 97t-54.5 80t-80.5 54t-97 20q-52 0 -97.5 -20t-80 -54t-54.5 -80t-20 -97zM457 939l120 -170h-133l-40 56l-42 -56h-132l119 170h108z" />
    <glyph glyph-name="Otilde" unicode="&#xd5;" horiz-adv-x="809" 
d="M32 350q0 76 29.5 144t80.5 118.5t118.5 80t143.5 29.5t144 -29.5t118.5 -80t80 -118.5t29.5 -144q0 -77 -29.5 -144.5t-80 -118t-118.5 -80t-144 -29.5t-143.5 29.5t-118.5 80t-80.5 118t-29.5 144.5zM152 350q0 -52 20 -97.5t54.5 -80t80 -54.5t97.5 -20q51 0 97 20
t80.5 54.5t54.5 80t20 97.5q0 51 -20 97t-54.5 80t-80.5 54t-97 20q-52 0 -97.5 -20t-80 -54t-54.5 -80t-20 -97zM547 855q-25 -42 -56 -63.5t-63 -21.5q-35 0 -65 17q-3 1 -21 -28l-102 61q24 43 56 64.5t64 21.5q16 0 32 -4t31 -13q2 -2 8.5 5.5t14.5 21.5z" />
    <glyph glyph-name="Odieresis" unicode="&#xd6;" horiz-adv-x="803" 
d="M29 350q0 76 29.5 144t80.5 118.5t118.5 80t143.5 29.5t144 -29.5t118.5 -80t80 -118.5t29.5 -144q0 -77 -29.5 -144.5t-80 -118t-118.5 -80t-144 -29.5t-143.5 29.5t-118.5 80t-80.5 118t-29.5 144.5zM149 350q0 -52 20 -97.5t54.5 -80t80 -54.5t97.5 -20q51 0 97 20
t80.5 54.5t54.5 80t20 97.5q0 51 -20 97t-54.5 80t-80.5 54t-97 20q-52 0 -97.5 -20t-80 -54t-54.5 -80t-20 -97zM239 834q0 27 18 45.5t46 18.5t46 -18.5t18 -45.5q0 -28 -18 -46.5t-46 -18.5t-46 18.5t-18 46.5zM432 834q0 27 18 45.5t46 18.5t46 -18.5t18 -45.5
q0 -28 -18 -46.5t-46 -18.5t-46 18.5t-18 46.5z" />
    <glyph glyph-name="multiply" unicode="&#xd7;" horiz-adv-x="387" 
d="M361 189l-81 -82l-87 87l-86 -87l-82 82l86 87l-85 84l83 82l84 -85l84 85l83 -82l-85 -84z" />
    <glyph glyph-name="Oslash" unicode="&#xd8;" horiz-adv-x="799" 
d="M320 -22h-124l240 744h123zM27 350q0 76 29.5 144t80.5 118.5t118.5 80t143.5 29.5t144 -29.5t118.5 -80t80 -118.5t29.5 -144q0 -77 -29.5 -144.5t-80 -118t-118.5 -80t-144 -29.5t-143.5 29.5t-118.5 80t-80.5 118t-29.5 144.5zM147 350q0 -52 20 -97.5t54.5 -80
t80 -54.5t97.5 -20q51 0 97 20t80.5 54.5t54.5 80t20 97.5q0 51 -20 97t-54.5 80t-80.5 54t-97 20q-52 0 -97.5 -20t-80 -54t-54.5 -80t-20 -97z" />
    <glyph glyph-name="Ugrave" unicode="&#xd9;" horiz-adv-x="561" 
d="M157 220q0 -26 9.5 -48t26 -38.5t38.5 -26t48 -9.5t48.5 9.5t39 26t26 38.5t9.5 48v480h120v-480q0 -51 -18.5 -95t-51.5 -77t-77.5 -51.5t-95.5 -18.5t-95 18.5t-77 51.5t-51.5 77t-18.5 95v480h120v-480zM157 912h124l68 -167h-124z" />
    <glyph glyph-name="Uacute" unicode="&#xda;" horiz-adv-x="564" 
d="M160 220q0 -26 9.5 -48t26 -38.5t38.5 -26t48 -9.5t48.5 9.5t39 26t26 38.5t9.5 48v480h120v-480q0 -51 -18.5 -95t-51.5 -77t-77.5 -51.5t-95.5 -18.5t-95 18.5t-77 51.5t-51.5 77t-18.5 95v480h120v-480zM419 911h-124l-68 -167h124z" />
    <glyph glyph-name="Ucircumflex" unicode="&#xdb;" horiz-adv-x="563" 
d="M160 220q0 -26 9.5 -48t26 -38.5t38.5 -26t48 -9.5t48.5 9.5t39 26t26 38.5t9.5 48v480h120v-480q0 -51 -18.5 -95t-51.5 -77t-77.5 -51.5t-95.5 -18.5t-95 18.5t-77 51.5t-51.5 77t-18.5 95v480h120v-480zM337 914l120 -170h-133l-40 56l-42 -56h-132l119 170h108z" />
    <glyph glyph-name="Udieresis" unicode="&#xdc;" horiz-adv-x="564" 
d="M160 220q0 -26 9.5 -48t26 -38.5t38.5 -26t48 -9.5t48.5 9.5t39 26t26 38.5t9.5 48v480h120v-480q0 -51 -18.5 -95t-51.5 -77t-77.5 -51.5t-95.5 -18.5t-95 18.5t-77 51.5t-51.5 77t-18.5 95v480h120v-480zM126 835q0 27 18 45.5t46 18.5t46 -18.5t18 -45.5
q0 -28 -18 -46.5t-46 -18.5t-46 18.5t-18 46.5zM319 835q0 27 18 45.5t46 18.5t46 -18.5t18 -45.5q0 -28 -18 -46.5t-46 -18.5t-46 18.5t-18 46.5z" />
    <glyph glyph-name="Yacute" unicode="&#xdd;" horiz-adv-x="605" 
d="M18 700h134l152 -295l77 149l75 146h135l-224 -427v-273h-125v271zM363 745h-124l68 167h123z" />
    <glyph glyph-name="Thorn" unicode="&#xde;" horiz-adv-x="429" 
d="M39 700h120v-184h8q49 -1 92.5 -13.5t76 -37t51.5 -62.5t19 -89q0 -53 -20 -90.5t-53.5 -62.5t-76.5 -36.5t-89 -11.5h-8v-113h-120v700zM282 315q-1 28 -13 44.5t-30 25t-39.5 11t-40.5 2.5v-167q22 0 44 3t40 11.5t29 25t10 44.5z" />
    <glyph glyph-name="germandbls" unicode="&#xdf;" horiz-adv-x="491" 
d="M336 209q0 43 -27.5 63.5t-88.5 20.5h-30v126h21q43 0 63.5 27t19.5 62q0 24 -10.5 39t-26 23.5t-35 11.5t-38.5 3h-36v-585h-116v700h150q108 0 170 -46.5t62 -149.5q0 -37 -15 -70.5t-35 -49.5q46 -22 70 -66.5t24 -109.5q0 -60 -20 -98t-53.5 -62.5t-76.5 -36
t-89 -11.5h-29v117h30q21 0 42 4.5t37.5 14.5t26.5 26t10 47z" />
    <glyph glyph-name="agrave" unicode="&#xe0;" horiz-adv-x="619" 
d="M37 251q0 57 21.5 106.5t58.5 86t86.5 58t106.5 21.5t106.5 -21.5t86 -58t58 -86t21.5 -106.5v-251h-116v28q-69 -49 -156 -49q-62 0 -112.5 21t-86 58t-55 86.5t-19.5 106.5zM154 251q0 -32 12.5 -60.5t33.5 -49.5t49.5 -33.5t60.5 -12.5t60.5 11.5t50 32.5t33.5 49.5
t12 62.5q0 32 -12.5 60.5t-33.5 49.5t-49.5 33.5t-60.5 12.5t-60.5 -12.5t-49.5 -33.5t-33.5 -49.5t-12.5 -60.5zM177 727h124l68 -167h-124z" />
    <glyph glyph-name="aacute" unicode="&#xe1;" horiz-adv-x="615" 
d="M35 251q0 57 21.5 106.5t58.5 86t86.5 58t106.5 21.5t106.5 -21.5t86 -58t58 -86t21.5 -106.5v-251h-116v28q-69 -49 -156 -49q-62 0 -112.5 21t-86 58t-55 86.5t-19.5 106.5zM152 251q0 -32 12.5 -60.5t33.5 -49.5t49.5 -33.5t60.5 -12.5t60.5 11.5t50 32.5t33.5 49.5
t12 62.5q0 32 -12.5 60.5t-33.5 49.5t-49.5 33.5t-60.5 12.5t-60.5 -12.5t-49.5 -33.5t-33.5 -49.5t-12.5 -60.5zM438 727h-124l-68 -167h124z" />
    <glyph glyph-name="acircumflex" unicode="&#xe2;" horiz-adv-x="617" 
d="M36 251q0 57 21.5 106.5t58.5 86t86.5 58t106.5 21.5t106.5 -21.5t86 -58t58 -86t21.5 -106.5v-251h-116v28q-69 -49 -156 -49q-62 0 -112.5 21t-86 58t-55 86.5t-19.5 106.5zM153 251q0 -32 12.5 -60.5t33.5 -49.5t49.5 -33.5t60.5 -12.5t60.5 11.5t50 32.5t33.5 49.5
t12 62.5q0 32 -12.5 60.5t-33.5 49.5t-49.5 33.5t-60.5 12.5t-60.5 -12.5t-49.5 -33.5t-33.5 -49.5t-12.5 -60.5zM363 731l120 -170h-133l-40 56l-42 -56h-132l119 170h108z" />
    <glyph glyph-name="atilde" unicode="&#xe3;" horiz-adv-x="619" 
d="M37 251q0 57 21.5 106.5t58.5 86t86.5 58t106.5 21.5t106.5 -21.5t86 -58t58 -86t21.5 -106.5v-251h-116v28q-69 -49 -156 -49q-62 0 -112.5 21t-86 58t-55 86.5t-19.5 106.5zM154 251q0 -32 12.5 -60.5t33.5 -49.5t49.5 -33.5t60.5 -12.5t60.5 11.5t50 32.5t33.5 49.5
t12 62.5q0 32 -12.5 60.5t-33.5 49.5t-49.5 33.5t-60.5 12.5t-60.5 -12.5t-49.5 -33.5t-33.5 -49.5t-12.5 -60.5zM452 646q-25 -42 -56 -63.5t-63 -21.5q-35 0 -65 17q-3 1 -21 -28l-102 61q24 43 56 64.5t64 21.5q16 0 32 -4t31 -13q2 -2 8.5 5.5t14.5 21.5z" />
    <glyph glyph-name="adieresis" unicode="&#xe4;" horiz-adv-x="620" 
d="M37 251q0 57 21.5 106.5t58.5 86t86.5 58t106.5 21.5t106.5 -21.5t86 -58t58 -86t21.5 -106.5v-251h-116v28q-69 -49 -156 -49q-62 0 -112.5 21t-86 58t-55 86.5t-19.5 106.5zM154 251q0 -32 12.5 -60.5t33.5 -49.5t49.5 -33.5t60.5 -12.5t60.5 11.5t50 32.5t33.5 49.5
t12 62.5q0 32 -12.5 60.5t-33.5 49.5t-49.5 33.5t-60.5 12.5t-60.5 -12.5t-49.5 -33.5t-33.5 -49.5t-12.5 -60.5zM147 626q0 27 18 45.5t46 18.5t46 -18.5t18 -45.5q0 -28 -18 -46.5t-46 -18.5t-46 18.5t-18 46.5zM340 626q0 27 18 45.5t46 18.5t46 -18.5t18 -45.5
q0 -28 -18 -46.5t-46 -18.5t-46 18.5t-18 46.5z" />
    <glyph glyph-name="ae" unicode="&#xe6;" horiz-adv-x="1045" 
d="M33 251q0 57 21.5 106.5t58.5 86t86.5 58t106.5 21.5t106.5 -21.5t86 -58t58 -86t21.5 -106.5v-251h-116v28q-69 -49 -156 -49q-62 0 -112.5 21t-86 58t-55 86.5t-19.5 106.5zM150 251q0 -32 12.5 -60.5t33.5 -49.5t49.5 -33.5t60.5 -12.5t60.5 11.5t50 32.5t33.5 49.5
t12 62.5q0 32 -12.5 60.5t-33.5 49.5t-49.5 33.5t-60.5 12.5t-60.5 -12.5t-49.5 -33.5t-33.5 -49.5t-12.5 -60.5zM579 243q1 -31 14 -58t34 -47t49 -31.5t59 -11.5q52 0 89 25.5t54 68.5h127q-17 -57 -45 -97t-64 -65t-77.5 -36.5t-83.5 -11.5q-57 0 -106.5 21.5t-86.5 58
t-58.5 86t-21.5 106.5t21.5 106.5t58.5 86t86.5 58t106.5 21.5q63 0 113 -23t85 -61.5t54.5 -89t20.5 -106.5h-429zM867 344q-38 64 -132 65q-96 -3 -134 -65h266z" />
    <glyph glyph-name="ccedilla" unicode="&#xe7;" horiz-adv-x="583" 
d="M145 251q0 -32 12.5 -60.5t33.5 -49.5t49.5 -33.5t60.5 -12.5q39 0 71 14.5t52 42.5h130q-19 -45 -46.5 -78t-60.5 -54t-70 -31t-76 -10q-57 0 -106.5 21.5t-86.5 58t-58.5 86t-21.5 106.5t21.5 106.5t58.5 86t86.5 58t106.5 21.5q37 0 74.5 -9.5t71 -30.5t61.5 -53.5
t47 -78.5h-131q-22 30 -54 43t-69 13q-32 0 -60.5 -12.5t-49.5 -33.5t-33.5 -49.5t-12.5 -60.5zM240 -184h79q2 0 8 1.5t6 12.5t-6 12.5t-8 1.5h-79v216h116v-113q39 -11 66.5 -43t27.5 -74q0 -26 -10 -47.5t-26.5 -38t-38.5 -25.5t-46 -9h-89v106z" />
    <glyph glyph-name="egrave" unicode="&#xe8;" 
d="M146 243q1 -31 14 -58t34 -47t49 -31.5t59 -11.5q52 0 89 25.5t54 68.5h127q-17 -57 -45 -97t-64 -65t-77.5 -36.5t-83.5 -11.5q-57 0 -106.5 21.5t-86.5 58t-58.5 86t-21.5 106.5t21.5 106.5t58.5 86t86.5 58t106.5 21.5q63 0 113 -23t85 -61.5t54.5 -89t20.5 -106.5
h-429zM434 344q-38 64 -132 65q-96 -3 -134 -65h266zM174 726h124l68 -167h-124z" />
    <glyph glyph-name="eacute" unicode="&#xe9;" 
d="M146 243q1 -31 14 -58t34 -47t49 -31.5t59 -11.5q52 0 89 25.5t54 68.5h127q-17 -57 -45 -97t-64 -65t-77.5 -36.5t-83.5 -11.5q-57 0 -106.5 21.5t-86.5 58t-58.5 86t-21.5 106.5t21.5 106.5t58.5 86t86.5 58t106.5 21.5q63 0 113 -23t85 -61.5t54.5 -89t20.5 -106.5
h-429zM434 344q-38 64 -132 65q-96 -3 -134 -65h266zM430 726h-124l-68 -167h124z" />
    <glyph glyph-name="ecircumflex" unicode="&#xea;" 
d="M146 243q1 -31 14 -58t34 -47t49 -31.5t59 -11.5q52 0 89 25.5t54 68.5h127q-17 -57 -45 -97t-64 -65t-77.5 -36.5t-83.5 -11.5q-57 0 -106.5 21.5t-86.5 58t-58.5 86t-21.5 106.5t21.5 106.5t58.5 86t86.5 58t106.5 21.5q63 0 113 -23t85 -61.5t54.5 -89t20.5 -106.5
h-429zM434 344q-38 64 -132 65q-96 -3 -134 -65h266zM354 732l120 -170h-133l-40 56l-42 -56h-132l119 170h108z" />
    <glyph glyph-name="edieresis" unicode="&#xeb;" 
d="M146 243q1 -31 14 -58t34 -47t49 -31.5t59 -11.5q52 0 89 25.5t54 68.5h127q-17 -57 -45 -97t-64 -65t-77.5 -36.5t-83.5 -11.5q-57 0 -106.5 21.5t-86.5 58t-58.5 86t-21.5 106.5t21.5 106.5t58.5 86t86.5 58t106.5 21.5q63 0 113 -23t85 -61.5t54.5 -89t20.5 -106.5
h-429zM434 344q-38 64 -132 65q-96 -3 -134 -65h266zM142 626q0 27 18 45.5t46 18.5t46 -18.5t18 -45.5q0 -28 -18 -46.5t-46 -18.5t-46 18.5t-18 46.5zM335 626q0 27 18 45.5t46 18.5t46 -18.5t18 -45.5q0 -28 -18 -46.5t-46 -18.5t-46 18.5t-18 46.5z" />
    <glyph glyph-name="igrave" unicode="&#xec;" horiz-adv-x="189" 
d="M36 499h116v-499h-116v499zM-37 706h124l68 -167h-124z" />
    <glyph glyph-name="iacute" unicode="&#xed;" horiz-adv-x="196" 
d="M41 499h116v-499h-116v499zM164 540h-124l68 167h124z" />
    <glyph glyph-name="icircumflex" unicode="&#xee;" horiz-adv-x="195" 
d="M40 500h116v-500h-116v500zM154 712l120 -170h-133l-40 56l-42 -56h-132l119 170h108z" />
    <glyph glyph-name="idieresis" unicode="&#xef;" horiz-adv-x="195" 
d="M40 500h116v-500h-116v500zM-56 626q0 27 18 45.5t46 18.5t46 -18.5t18 -45.5q0 -28 -18 -46.5t-46 -18.5t-46 18.5t-18 46.5zM137 626q0 27 18 45.5t46 18.5t46 -18.5t18 -45.5q0 -28 -18 -46.5t-46 -18.5t-46 18.5t-18 46.5z" />
    <glyph glyph-name="ntilde" unicode="&#xf1;" horiz-adv-x="530" 
d="M374 295q0 22 -8.5 42t-23.5 35t-35 24t-43 9t-43 -9.5t-35 -24.5t-24 -35t-9 -41l1 -295h-117v500h116v-29q20 25 48 38t63 14q46 0 87.5 -18t73 -49t49.5 -72.5t18 -88.5l1 -295h-118zM407 646q-25 -42 -56 -63.5t-63 -21.5q-35 0 -65 17q-3 1 -21 -28l-102 61
q24 43 56 64.5t64 21.5q16 0 32 -4t31 -13q2 -2 8.5 5.5t14.5 21.5z" />
    <glyph glyph-name="ograve" unicode="&#xf2;" horiz-adv-x="601" 
d="M28 251q0 57 21.5 106.5t58.5 86t86.5 58t106.5 21.5t106.5 -21.5t86 -58t58 -86t21.5 -106.5t-21.5 -106.5t-58 -86t-86 -58t-106.5 -21.5t-106.5 21.5t-86.5 58t-58.5 86t-21.5 106.5zM145 251q0 -32 12.5 -60.5t33.5 -49.5t49.5 -33.5t60.5 -12.5t60.5 12.5t49.5 33.5
t33.5 49.5t12.5 60.5t-12.5 60.5t-33.5 49.5t-49.5 33.5t-60.5 12.5t-60.5 -12.5t-49.5 -33.5t-33.5 -49.5t-12.5 -60.5zM172 726h124l68 -167h-124z" />
    <glyph glyph-name="oacute" unicode="&#xf3;" horiz-adv-x="601" 
d="M28 251q0 57 21.5 106.5t58.5 86t86.5 58t106.5 21.5t106.5 -21.5t86 -58t58 -86t21.5 -106.5t-21.5 -106.5t-58 -86t-86 -58t-106.5 -21.5t-106.5 21.5t-86.5 58t-58.5 86t-21.5 106.5zM145 251q0 -32 12.5 -60.5t33.5 -49.5t49.5 -33.5t60.5 -12.5t60.5 12.5t49.5 33.5
t33.5 49.5t12.5 60.5t-12.5 60.5t-33.5 49.5t-49.5 33.5t-60.5 12.5t-60.5 -12.5t-49.5 -33.5t-33.5 -49.5t-12.5 -60.5zM355 559h-124l68 167h123z" />
    <glyph glyph-name="ocircumflex" unicode="&#xf4;" horiz-adv-x="601" 
d="M28 251q0 57 21.5 106.5t58.5 86t86.5 58t106.5 21.5t106.5 -21.5t86 -58t58 -86t21.5 -106.5t-21.5 -106.5t-58 -86t-86 -58t-106.5 -21.5t-106.5 21.5t-86.5 58t-58.5 86t-21.5 106.5zM145 251q0 -32 12.5 -60.5t33.5 -49.5t49.5 -33.5t60.5 -12.5t60.5 12.5t49.5 33.5
t33.5 49.5t12.5 60.5t-12.5 60.5t-33.5 49.5t-49.5 33.5t-60.5 12.5t-60.5 -12.5t-49.5 -33.5t-33.5 -49.5t-12.5 -60.5zM353 732l120 -170h-133l-40 56l-42 -56h-132l119 170h108z" />
    <glyph glyph-name="otilde" unicode="&#xf5;" horiz-adv-x="601" 
d="M28 251q0 57 21.5 106.5t58.5 86t86.5 58t106.5 21.5t106.5 -21.5t86 -58t58 -86t21.5 -106.5t-21.5 -106.5t-58 -86t-86 -58t-106.5 -21.5t-106.5 21.5t-86.5 58t-58.5 86t-21.5 106.5zM145 251q0 -32 12.5 -60.5t33.5 -49.5t49.5 -33.5t60.5 -12.5t60.5 12.5t49.5 33.5
t33.5 49.5t12.5 60.5t-12.5 60.5t-33.5 49.5t-49.5 33.5t-60.5 12.5t-60.5 -12.5t-49.5 -33.5t-33.5 -49.5t-12.5 -60.5zM446 649q-25 -42 -56 -63.5t-63 -21.5q-35 0 -65 17q-3 1 -21 -28l-102 61q24 43 56 64.5t64 21.5q16 0 32 -4t31 -13q2 -2 8.5 5.5t14.5 21.5z" />
    <glyph glyph-name="odieresis" unicode="&#xf6;" horiz-adv-x="601" 
d="M28 251q0 57 21.5 106.5t58.5 86t86.5 58t106.5 21.5t106.5 -21.5t86 -58t58 -86t21.5 -106.5t-21.5 -106.5t-58 -86t-86 -58t-106.5 -21.5t-106.5 21.5t-86.5 58t-58.5 86t-21.5 106.5zM145 251q0 -32 12.5 -60.5t33.5 -49.5t49.5 -33.5t60.5 -12.5t60.5 12.5t49.5 33.5
t33.5 49.5t12.5 60.5t-12.5 60.5t-33.5 49.5t-49.5 33.5t-60.5 12.5t-60.5 -12.5t-49.5 -33.5t-33.5 -49.5t-12.5 -60.5zM139 627q0 27 18 45.5t46 18.5t46 -18.5t18 -45.5q0 -28 -18 -46.5t-46 -18.5t-46 18.5t-18 46.5zM332 627q0 27 18 45.5t46 18.5t46 -18.5t18 -45.5
q0 -28 -18 -46.5t-46 -18.5t-46 18.5t-18 46.5z" />
    <glyph glyph-name="divide" unicode="&#xf7;" horiz-adv-x="413" 
d="M148 64q0 28 18 46.5t46 18.5t46 -18.5t18 -46.5q0 -27 -18 -45.5t-46 -18.5t-46 18.5t-18 45.5zM148 436q0 27 18 45.5t46 18.5t46 -18.5t18 -45.5q0 -28 -18 -46.5t-46 -18.5t-46 18.5t-18 46.5zM388 307v-116h-358v116h358z" />
    <glyph glyph-name="oslash" unicode="&#xf8;" 
d="M29 251q0 57 21.5 106.5t58.5 86t86.5 58t106.5 21.5t106.5 -21.5t86 -58t58 -86t21.5 -106.5t-21.5 -106.5t-58 -86t-86 -58t-106.5 -21.5t-106.5 21.5t-86.5 58t-58.5 86t-21.5 106.5zM146 251q0 -32 12.5 -60.5t33.5 -49.5t49.5 -33.5t60.5 -12.5t60.5 12.5t49.5 33.5
t33.5 49.5t12.5 60.5t-12.5 60.5t-33.5 49.5t-49.5 33.5t-60.5 12.5t-60.5 -12.5t-49.5 -33.5t-33.5 -49.5t-12.5 -60.5zM275 -91h-124l228 700h123z" />
    <glyph glyph-name="ugrave" unicode="&#xf9;" horiz-adv-x="524" 
d="M373 500h116v-272q0 -47 -18 -88t-48.5 -72.5t-72 -49.5t-88.5 -18t-88 18t-72.5 49.5t-49.5 73t-18 88.5v271h116v-272q0 -23 9 -43t24 -35t35.5 -23.5t43.5 -8.5t43 8.5t35 23.5t24 35t9 43v272zM137 726h124l68 -167h-124z" />
    <glyph glyph-name="uacute" unicode="&#xfa;" horiz-adv-x="522" 
d="M373 500h116v-272q0 -47 -18 -88t-48.5 -72.5t-72 -49.5t-88.5 -18t-88 18t-72.5 49.5t-49.5 73t-18 88.5v271h116v-272q0 -23 9 -43t24 -35t35.5 -23.5t43.5 -8.5t43 8.5t35 23.5t24 35t9 43v272zM328 560h-124l68 167h123z" />
    <glyph glyph-name="ucircumflex" unicode="&#xfb;" horiz-adv-x="524" 
d="M373 500h116v-272q0 -47 -18 -88t-48.5 -72.5t-72 -49.5t-88.5 -18t-88 18t-72.5 49.5t-49.5 73t-18 88.5v271h116v-272q0 -23 9 -43t24 -35t35.5 -23.5t43.5 -8.5t43 8.5t35 23.5t24 35t9 43v272zM320 732l120 -170h-133l-40 56l-42 -56h-132l119 170h108z" />
    <glyph glyph-name="udieresis" unicode="&#xfc;" horiz-adv-x="524" 
d="M373 500h116v-272q0 -47 -18 -88t-48.5 -72.5t-72 -49.5t-88.5 -18t-88 18t-72.5 49.5t-49.5 73t-18 88.5v271h116v-272q0 -23 9 -43t24 -35t35.5 -23.5t43.5 -8.5t43 8.5t35 23.5t24 35t9 43v272zM102 626q0 27 18 45.5t46 18.5t46 -18.5t18 -45.5q0 -28 -18 -46.5
t-46 -18.5t-46 18.5t-18 46.5zM295 626q0 27 18 45.5t46 18.5t46 -18.5t18 -45.5q0 -28 -18 -46.5t-46 -18.5t-46 18.5t-18 46.5z" />
    <glyph glyph-name="yacute" unicode="&#xfd;" horiz-adv-x="536" 
d="M379 500h116v-278q0 -38 -10 -73.5t-31 -65.5t-52.5 -52t-74.5 -32v-197h-117v198q-75 25 -122 84.5t-48 137.5v278h117l1 -278q0 -23 8.5 -43t23.5 -35t35 -24t43 -9t43 8.5t35 23.5t24 35t9 43v279zM333 539h-124l68 167h123z" />
    <glyph glyph-name="thorn" unicode="&#xfe;" horiz-adv-x="605" 
d="M38 679h116v-206q34 24 73 37t83 13q57 0 106.5 -21.5t86 -58t58 -86t21.5 -106.5t-21.5 -106.5t-58 -86t-86 -58t-106.5 -21.5q-44 0 -83 12.5t-73 35.5v-219h-116v871zM154 251q0 -32 12.5 -60.5t33.5 -49.5t49.5 -33.5t60.5 -12.5t60.5 12.5t49.5 33.5t33.5 49.5
t12.5 60.5t-12.5 60.5t-33.5 49.5t-49.5 33.5t-60.5 12.5q-48 0 -87 -26.5t-57 -69.5q-10 -24 -12 -49v-11z" />
    <glyph glyph-name="ydieresis" unicode="&#xff;" horiz-adv-x="531" 
d="M376 500h116v-278q0 -38 -10 -73.5t-31 -65.5t-52.5 -52t-74.5 -32v-197h-117v198q-75 25 -122 84.5t-48 137.5v278h117l1 -278q0 -23 8.5 -43t23.5 -35t35 -24t43 -9t43 8.5t35 23.5t24 35t9 43v279zM108 627q0 27 18 45.5t46 18.5t46 -18.5t18 -45.5q0 -28 -18 -46.5
t-46 -18.5t-46 18.5t-18 46.5zM301 627q0 27 18 45.5t46 18.5t46 -18.5t18 -45.5q0 -28 -18 -46.5t-46 -18.5t-46 18.5t-18 46.5z" />
    <glyph glyph-name="aogonek" unicode="&#x105;" horiz-adv-x="609" 
d="M30 251q0 57 21.5 106.5t58.5 86t86.5 58t106.5 21.5t106.5 -21.5t86 -58t58 -86t21.5 -106.5v-251h-116v28q-69 -49 -156 -49q-62 0 -112.5 21t-86 58t-55 86.5t-19.5 106.5zM147 251q0 -32 12.5 -60.5t33.5 -49.5t49.5 -33.5t60.5 -12.5t60.5 11.5t50 32.5t33.5 49.5
t12 62.5q0 32 -12.5 60.5t-33.5 49.5t-49.5 33.5t-60.5 12.5t-60.5 -12.5t-49.5 -33.5t-33.5 -49.5t-12.5 -60.5zM360 -290h-89q-24 0 -46 9t-38.5 25.5t-26.5 38t-10 47.5q0 42 27.5 74t66.5 43v113h116v-216h-79q-2 0 -8 -1.5t-6 -12.5t6 -12.5t8 -1.5h79v-106z" />
    <glyph glyph-name="Cacute" unicode="&#x106;" horiz-adv-x="765" 
d="M150 350q0 -52 20 -97.5t54.5 -80t80.5 -54.5t98 -20t98 20.5t81 55.5h151q-23 -43 -56.5 -79t-75.5 -62t-92 -40.5t-106 -14.5q-77 0 -144.5 29.5t-118 80t-80 118t-29.5 144.5q0 76 29.5 144t80 118.5t118 80t144.5 29.5q57 0 107 -16t92.5 -43.5t75.5 -63.5t55 -76
h-152q-36 36 -81 57t-97 21t-98 -20t-80.5 -54t-54.5 -80t-20 -97zM447 769h-124l68 167h123z" />
    <glyph glyph-name="cacute" unicode="&#x107;" horiz-adv-x="575" 
d="M141 251q0 -32 12.5 -60.5t33.5 -49.5t49.5 -33.5t60.5 -12.5q39 0 71 14.5t52 42.5h130q-19 -45 -46.5 -78t-60.5 -54t-70 -31t-76 -10q-57 0 -106.5 21.5t-86.5 58t-58.5 86t-21.5 106.5t21.5 106.5t58.5 86t86.5 58t106.5 21.5q37 0 74.5 -9.5t71 -30.5t61.5 -53.5
t47 -78.5h-131q-22 30 -54 43t-69 13q-32 0 -60.5 -12.5t-49.5 -33.5t-33.5 -49.5t-12.5 -60.5zM345 560h-124l68 167h123z" />
    <glyph glyph-name="Ccircumflex" unicode="&#x108;" horiz-adv-x="765" 
d="M150 350q0 -52 20 -97.5t54.5 -80t80.5 -54.5t98 -20t98 20.5t81 55.5h151q-23 -43 -56.5 -79t-75.5 -62t-92 -40.5t-106 -14.5q-77 0 -144.5 29.5t-118 80t-80 118t-29.5 144.5q0 76 29.5 144t80 118.5t118 80t144.5 29.5q57 0 107 -16t92.5 -43.5t75.5 -63.5t55 -76
h-152q-36 36 -81 57t-97 21t-98 -20t-80.5 -54t-54.5 -80t-20 -97zM438 940l120 -170h-133l-40 56l-42 -56h-132l119 170h108z" />
    <glyph glyph-name="ccircumflex" unicode="&#x109;" horiz-adv-x="575" 
d="M141 251q0 -32 12.5 -60.5t33.5 -49.5t49.5 -33.5t60.5 -12.5q39 0 71 14.5t52 42.5h130q-19 -45 -46.5 -78t-60.5 -54t-70 -31t-76 -10q-57 0 -106.5 21.5t-86.5 58t-58.5 86t-21.5 106.5t21.5 106.5t58.5 86t86.5 58t106.5 21.5q37 0 74.5 -9.5t71 -30.5t61.5 -53.5
t47 -78.5h-131q-22 30 -54 43t-69 13q-32 0 -60.5 -12.5t-49.5 -33.5t-33.5 -49.5t-12.5 -60.5zM342 731l120 -170h-133l-40 56l-42 -56h-132l119 170h108z" />
    <glyph glyph-name="Cdotaccent" unicode="&#x10a;" horiz-adv-x="767" 
d="M151 350q0 -52 20 -97.5t54.5 -80t80.5 -54.5t98 -20t98 20.5t81 55.5h151q-23 -43 -56.5 -79t-75.5 -62t-92 -40.5t-106 -14.5q-77 0 -144.5 29.5t-118 80t-80 118t-29.5 144.5q0 76 29.5 144t80 118.5t118 80t144.5 29.5q57 0 107 -16t92.5 -43.5t75.5 -63.5t55 -76
h-152q-36 36 -81 57t-97 21t-98 -20t-80.5 -54t-54.5 -80t-20 -97zM331 862q0 28 18.5 46t45.5 18q28 0 46 -18t18 -46t-18 -46t-46 -18q-27 0 -45.5 18t-18.5 46z" />
    <glyph glyph-name="cdotaccent" unicode="&#x10b;" horiz-adv-x="575" 
d="M141 251q0 -32 12.5 -60.5t33.5 -49.5t49.5 -33.5t60.5 -12.5q39 0 71 14.5t52 42.5h130q-19 -45 -46.5 -78t-60.5 -54t-70 -31t-76 -10q-57 0 -106.5 21.5t-86.5 58t-58.5 86t-21.5 106.5t21.5 106.5t58.5 86t86.5 58t106.5 21.5q37 0 74.5 -9.5t71 -30.5t61.5 -53.5
t47 -78.5h-131q-22 30 -54 43t-69 13q-32 0 -60.5 -12.5t-49.5 -33.5t-33.5 -49.5t-12.5 -60.5zM228 625q0 28 18.5 46t45.5 18q28 0 46 -18t18 -46t-18 -46t-46 -18q-27 0 -45.5 18t-18.5 46z" />
    <glyph glyph-name="Ccaron" unicode="&#x10c;" horiz-adv-x="763" 
d="M149 350q0 -52 20 -97.5t54.5 -80t80.5 -54.5t98 -20t98 20.5t81 55.5h151q-23 -43 -56.5 -79t-75.5 -62t-92 -40.5t-106 -14.5q-77 0 -144.5 29.5t-118 80t-80 118t-29.5 144.5q0 76 29.5 144t80 118.5t118 80t144.5 29.5q57 0 107 -16t92.5 -43.5t75.5 -63.5t55 -76
h-152q-36 36 -81 57t-97 21t-98 -20t-80.5 -54t-54.5 -80t-20 -97zM340 770l-119 170h133l41 -57l40 57h133l-120 -170h-108z" />
    <glyph glyph-name="ccaron" unicode="&#x10d;" horiz-adv-x="575" 
d="M141 251q0 -32 12.5 -60.5t33.5 -49.5t49.5 -33.5t60.5 -12.5q39 0 71 14.5t52 42.5h130q-19 -45 -46.5 -78t-60.5 -54t-70 -31t-76 -10q-57 0 -106.5 21.5t-86.5 58t-58.5 86t-21.5 106.5t21.5 106.5t58.5 86t86.5 58t106.5 21.5q37 0 74.5 -9.5t71 -30.5t61.5 -53.5
t47 -78.5h-131q-22 30 -54 43t-69 13q-32 0 -60.5 -12.5t-49.5 -33.5t-33.5 -49.5t-12.5 -60.5zM239 559l-119 170h133l41 -57l40 57h133l-120 -170h-108z" />
    <glyph glyph-name="Dcaron" unicode="&#x10e;" horiz-adv-x="665" 
d="M40 700h244q73 0 136.5 -29t110.5 -78t74.5 -114.5t27.5 -137.5t-27.5 -134.5t-74.5 -108.5t-110.5 -72t-136.5 -26h-244v700zM284 120q48 0 89.5 16.5t73 46t49.5 70t18 88.5q0 47 -18 90.5t-49.5 76.5t-73 52.5t-89.5 19.5h-124v-460h124zM234 768l-119 170h133l41 -57
l40 57h133l-120 -170h-108z" />
    <glyph glyph-name="Edotaccent" unicode="&#x116;" horiz-adv-x="558" 
d="M40 700h484v-120h-364v-210h300v-119h-300v-131h364v-120h-484v700zM218 862q0 28 18.5 46t45.5 18q28 0 46 -18t18 -46t-18 -46t-46 -18q-27 0 -45.5 18t-18.5 46z" />
    <glyph glyph-name="edotaccent" unicode="&#x117;" 
d="M146 243q1 -31 14 -58t34 -47t49 -31.5t59 -11.5q52 0 89 25.5t54 68.5h127q-17 -57 -45 -97t-64 -65t-77.5 -36.5t-83.5 -11.5q-57 0 -106.5 21.5t-86.5 58t-58.5 86t-21.5 106.5t21.5 106.5t58.5 86t86.5 58t106.5 21.5q63 0 113 -23t85 -61.5t54.5 -89t20.5 -106.5
h-429zM434 344q-38 64 -132 65q-96 -3 -134 -65h266zM235 625q0 28 18.5 46t45.5 18q28 0 46 -18t18 -46t-18 -46t-46 -18q-27 0 -45.5 18t-18.5 46z" />
    <glyph glyph-name="Eogonek" unicode="&#x118;" horiz-adv-x="558" 
d="M40 700h484v-120h-364v-210h300v-119h-300v-131h364v-120h-484v700zM347 -290h-89q-24 0 -46 9t-38.5 25.5t-26.5 38t-10 47.5q0 42 27.5 74t66.5 43v113h116v-216h-79q-2 0 -8 -1.5t-6 -12.5t6 -12.5t8 -1.5h79v-106z" />
    <glyph glyph-name="eogonek" unicode="&#x119;" 
d="M146 243q1 -31 14 -58t34 -47t49 -31.5t59 -11.5q52 0 89 25.5t54 68.5h127q-17 -57 -45 -97t-64 -65t-77.5 -36.5t-83.5 -11.5q-57 0 -106.5 21.5t-86.5 58t-58.5 86t-21.5 106.5t21.5 106.5t58.5 86t86.5 58t106.5 21.5q63 0 113 -23t85 -61.5t54.5 -89t20.5 -106.5
h-429zM434 344q-38 64 -132 65q-96 -3 -134 -65h266zM359 -290h-89q-24 0 -46 9t-38.5 25.5t-26.5 38t-10 47.5q0 42 27.5 74t66.5 43v113h116v-216h-79q-2 0 -8 -1.5t-6 -12.5t6 -12.5t8 -1.5h79v-106z" />
    <glyph glyph-name="Ecaron" unicode="&#x11a;" horiz-adv-x="553" 
d="M38 700h484v-120h-364v-210h300v-119h-300v-131h364v-120h-484v700zM226 770l-119 170h133l41 -57l40 57h133l-120 -170h-108z" />
    <glyph glyph-name="ecaron" unicode="&#x11b;" 
d="M146 243q1 -31 14 -58t34 -47t49 -31.5t59 -11.5q52 0 89 25.5t54 68.5h127q-17 -57 -45 -97t-64 -65t-77.5 -36.5t-83.5 -11.5q-57 0 -106.5 21.5t-86.5 58t-58.5 86t-21.5 106.5t21.5 106.5t58.5 86t86.5 58t106.5 21.5q63 0 113 -23t85 -61.5t54.5 -89t20.5 -106.5
h-429zM434 344q-38 64 -132 65q-96 -3 -134 -65h266zM247 559l-119 170h133l41 -57l40 57h133l-120 -170h-108z" />
    <glyph glyph-name="Gcircumflex" unicode="&#x11c;" horiz-adv-x="798" 
d="M761 370q0 -88 -20 -160.5t-63 -124t-110 -79.5t-161 -28q-77 0 -144.5 29.5t-118 80t-80 118t-29.5 144.5q0 76 29.5 144t80 118.5t118 80t144.5 29.5q64 0 118.5 -18t98 -50t75.5 -75.5t52 -94.5h-134q-15 28 -37.5 49.5t-50 36.5t-59 23t-63.5 8q-52 0 -98 -20
t-80.5 -54t-54.5 -80t-20 -97q0 -52 20 -97t54.5 -79t80.5 -54.5t98 -21.5q94 -3 151.5 37.5t68.5 115.5h-209v119h343zM452 940l120 -170h-133l-40 56l-42 -56h-132l119 170h108z" />
    <glyph glyph-name="gcircumflex" unicode="&#x11d;" horiz-adv-x="603" 
d="M303 523q43 0 82.5 -13t73.5 -36v26h116v-427q0 -57 -21.5 -106.5t-58 -86t-86 -58t-106.5 -21.5q-85 1 -147 42t-97 96l70 73q45 -55 85 -75t89 -20q51 0 91 30t56 75q-32 -20 -69 -31.5t-78 -11.5q-42 0 -80 12q-52 18 -93.5 52t-67.5 80q-31 58 -31 128
q0 57 21.5 106.5t58 86t86 58t106.5 21.5zM147 251q0 -32 12.5 -60.5t33.5 -49.5t49.5 -33.5t60.5 -12.5q31 1 60 12.5t50.5 33t33.5 51t12 66.5q0 29 -10 53q-20 42 -58.5 69t-87.5 27q-32 0 -60.5 -12.5t-49.5 -33.5t-33.5 -49.5t-12.5 -60.5zM359 731l120 -170h-133
l-40 56l-42 -56h-132l119 170h108z" />
    <glyph glyph-name="Gdotaccent" unicode="&#x120;" horiz-adv-x="804" 
d="M764 370q0 -88 -20 -160.5t-63 -124t-110 -79.5t-161 -28q-77 0 -144.5 29.5t-118 80t-80 118t-29.5 144.5q0 76 29.5 144t80 118.5t118 80t144.5 29.5q64 0 118.5 -18t98 -50t75.5 -75.5t52 -94.5h-134q-15 28 -37.5 49.5t-50 36.5t-59 23t-63.5 8q-52 0 -98 -20
t-80.5 -54t-54.5 -80t-20 -97q0 -52 20 -97t54.5 -79t80.5 -54.5t98 -21.5q94 -3 151.5 37.5t68.5 115.5h-209v119h343zM340 860q0 28 18.5 46t45.5 18q28 0 46 -18t18 -46t-18 -46t-46 -18q-27 0 -45.5 18t-18.5 46z" />
    <glyph glyph-name="Itilde" unicode="&#x128;" horiz-adv-x="193" 
d="M35 700h120v-700h-120v700zM245 865q-25 -42 -56 -63.5t-63 -21.5q-35 0 -65 17q-3 1 -21 -28l-102 61q24 43 56 64.5t64 21.5q16 0 32 -4t31 -13q2 -2 8.5 5.5t14.5 21.5z" />
    <glyph glyph-name="dotlessi" unicode="&#x131;" horiz-adv-x="195" 
d="M39 500h116v-500h-116v500z" />
    <glyph glyph-name="nacute" unicode="&#x144;" horiz-adv-x="530" 
d="M374 295q0 22 -8.5 42t-23.5 35t-35 24t-43 9t-43 -9.5t-35 -24.5t-24 -35t-9 -41l1 -295h-117v500h116v-29q20 25 48 38t63 14q46 0 87.5 -18t73 -49t49.5 -72.5t18 -88.5l1 -295h-118zM331 560h-124l68 167h123z" />
    <glyph glyph-name="Ncaron" unicode="&#x147;" horiz-adv-x="544" 
d="M397 700h119v-700h-107l-257 440v-440h-120v700h108l257 -440v440zM216 745l-119 170h133l41 -57l40 57h133l-120 -170h-108z" />
    <glyph glyph-name="ncaron" unicode="&#x148;" horiz-adv-x="528" 
d="M374 295q0 22 -8.5 42t-23.5 35t-35 24t-43 9t-43 -9.5t-35 -24.5t-24 -35t-9 -41l1 -295h-117v500h116v-29q20 25 48 38t63 14q46 0 87.5 -18t73 -49t49.5 -72.5t18 -88.5l1 -295h-118zM203 560l-119 170h133l41 -57l40 57h133l-120 -170h-108z" />
    <glyph glyph-name="OE" unicode="&#x152;" horiz-adv-x="876" 
d="M384 0q-72 0 -136 27.5t-111.5 75t-75 111.5t-27.5 136t27.5 136t75 111.5t111.5 75t136 27.5h457v-120h-365v-210h301v-119h-301v-131h365v-120h-457zM155 349q0 -45 15 -85t42 -70.5t64 -49.5t81 -22v455q-44 -3 -81 -22t-64 -50t-42 -71t-15 -85z" />
    <glyph glyph-name="oe" unicode="&#x153;" horiz-adv-x="1024" 
d="M26 251q0 57 21.5 106.5t58.5 86t86.5 58t106.5 21.5t106.5 -21.5t86 -58t58 -86t21.5 -106.5t-21.5 -106.5t-58 -86t-86 -58t-106.5 -21.5t-106.5 21.5t-86.5 58t-58.5 86t-21.5 106.5zM143 251q0 -32 12.5 -60.5t33.5 -49.5t49.5 -33.5t60.5 -12.5t60.5 12.5t49.5 33.5
t33.5 49.5t12.5 60.5t-12.5 60.5t-33.5 49.5t-49.5 33.5t-60.5 12.5t-60.5 -12.5t-49.5 -33.5t-33.5 -49.5t-12.5 -60.5zM569 243q1 -31 14 -58t34 -47t49 -31.5t59 -11.5q52 0 89 25.5t54 68.5h127q-17 -57 -45 -97t-64 -65t-77.5 -36.5t-83.5 -11.5q-57 0 -106.5 21.5
t-86.5 58t-58.5 86t-21.5 106.5t21.5 106.5t58.5 86t86.5 58t106.5 21.5q63 0 113 -23t85 -61.5t54.5 -89t20.5 -106.5h-429zM857 344q-38 64 -132 65q-96 -3 -134 -65h266z" />
    <glyph glyph-name="Racute" unicode="&#x154;" horiz-adv-x="537" 
d="M39 700h220q54 -1 98.5 -15.5t75.5 -42.5t48 -69.5t17 -95.5q0 -55 -20.5 -102t-59.5 -68q12 -5 26.5 -13.5t26.5 -24.5t19.5 -42.5t6.5 -67.5v-159h-120v159q0 27 -9.5 44.5t-24.5 28t-34.5 15t-39.5 4.5h-110v-251h-120v700zM381 478q0 56 -35 82t-86 26h-101v-219h101
q58 1 89.5 27t31.5 84zM290 769h-124l68 167h123z" />
    <glyph glyph-name="racute" unicode="&#x155;" horiz-adv-x="375" 
d="M42 500h116v-50q36 25 82 38.5t101 13.5v-116q-38 0 -71 -12.5t-58 -34t-39.5 -50t-14.5 -60.5v-229h-116v500zM261 560h-124l68 167h123z" />
    <glyph glyph-name="Rcaron" unicode="&#x158;" horiz-adv-x="535" 
d="M38 700h220q54 -1 98.5 -15.5t75.5 -42.5t48 -69.5t17 -95.5q0 -55 -20.5 -102t-59.5 -68q12 -5 26.5 -13.5t26.5 -24.5t19.5 -42.5t6.5 -67.5v-159h-120v159q0 27 -9.5 44.5t-24.5 28t-34.5 15t-39.5 4.5h-110v-251h-120v700zM380 478q0 56 -35 82t-86 26h-101v-219h101
q58 1 89.5 27t31.5 84zM191 745l-119 170h133l41 -57l40 57h133l-120 -170h-108z" />
    <glyph glyph-name="rcaron" unicode="&#x159;" horiz-adv-x="392" 
d="M42 500h116v-50q36 25 82 38.5t101 13.5v-116q-38 0 -71 -12.5t-58 -34t-39.5 -50t-14.5 -60.5v-229h-116v500zM162 539l-119 170h133l41 -57l40 57h133l-120 -170h-108z" />
    <glyph glyph-name="Sacute" unicode="&#x15a;" horiz-adv-x="560" 
d="M421 192q0 27 -13.5 46.5t-35.5 33.5t-51 25l-58 22q-36 12 -87.5 33t-85.5 57t-43 88q-5 45 13 86t52 72t80 49t97 18q64 0 108.5 -23.5t73 -56.5t42 -69.5t14.5 -61.5h-122q-10 45 -37.5 70t-79.5 27q-30 1 -54 -7.5t-40 -23t-22.5 -33t-2.5 -37.5q3 -15 15 -26t30 -20
t40.5 -17t47.5 -16q42 -14 84.5 -30.5t76.5 -42.5t55.5 -65t21.5 -98q0 -51 -20.5 -91t-55.5 -67t-80.5 -41.5t-94.5 -14.5q-50 0 -97.5 18t-84.5 52.5t-59 84.5t-20 115h120q0 -31 9.5 -59.5t27.5 -49.5t44 -33.5t59 -12.5q60 0 96.5 25.5t36.5 73.5zM347 769h-124l68 167
h123z" />
    <glyph glyph-name="sacute" unicode="&#x15b;" horiz-adv-x="402" 
d="M271 140q1 30 -20.5 43t-63.5 24q-28 7 -55 17t-49.5 26.5t-37.5 41t-19 60.5q-3 36 10 67t38 54t58.5 36.5t71.5 13.5q32 0 60 -11t50 -28.5t36 -39t19 -42.5h-117q-10 19 -52 19q-25 0 -45 -15t-14 -43q4 -17 29.5 -27t76.5 -27q30 -10 56 -24t45.5 -34t30.5 -48
t11 -65q0 -38 -15.5 -67.5t-41.5 -50t-60 -31.5t-71 -11q-33 0 -66.5 12.5t-60 35t-43.5 55t-17 71.5h117q1 -27 20.5 -47.5t51.5 -20.5q30 0 48 18t19 38zM257 560h-124l68 167h123z" />
    <glyph glyph-name="Scircumflex" unicode="&#x15c;" horiz-adv-x="558" 
d="M418 192q0 27 -13.5 46.5t-35.5 33.5t-51 25l-58 22q-36 12 -87.5 33t-85.5 57t-43 88q-5 45 13 86t52 72t80 49t97 18q64 0 108.5 -23.5t73 -56.5t42 -69.5t14.5 -61.5h-122q-10 45 -37.5 70t-79.5 27q-30 1 -54 -7.5t-40 -23t-22.5 -33t-2.5 -37.5q3 -15 15 -26t30 -20
t40.5 -17t47.5 -16q42 -14 84.5 -30.5t76.5 -42.5t55.5 -65t21.5 -98q0 -51 -20.5 -91t-55.5 -67t-80.5 -41.5t-94.5 -14.5q-50 0 -97.5 18t-84.5 52.5t-59 84.5t-20 115h120q0 -31 9.5 -59.5t27.5 -49.5t44 -33.5t59 -12.5q60 0 96.5 25.5t36.5 73.5zM340 939l120 -170
h-133l-40 56l-42 -56h-132l119 170h108z" />
    <glyph glyph-name="scircumflex" unicode="&#x15d;" horiz-adv-x="422" 
d="M281 140q1 30 -20.5 43t-63.5 24q-28 7 -55 17t-49.5 26.5t-37.5 41t-19 60.5q-3 36 10 67t38 54t58.5 36.5t71.5 13.5q32 0 60 -11t50 -28.5t36 -39t19 -42.5h-117q-10 19 -52 19q-25 0 -45 -15t-14 -43q4 -17 29.5 -27t76.5 -27q30 -10 56 -24t45.5 -34t30.5 -48
t11 -65q0 -38 -15.5 -67.5t-41.5 -50t-60 -31.5t-71 -11q-33 0 -66.5 12.5t-60 35t-43.5 55t-17 71.5h117q1 -27 20.5 -47.5t51.5 -20.5q30 0 48 18t19 38zM254 732l120 -170h-133l-40 56l-42 -56h-132l119 170h108z" />
    <glyph glyph-name="Scaron" unicode="&#x160;" horiz-adv-x="552" 
d="M412 192q0 27 -13.5 46.5t-35.5 33.5t-51 25l-58 22q-36 12 -87.5 33t-85.5 57t-43 88q-5 45 13 86t52 72t80 49t97 18q64 0 108.5 -23.5t73 -56.5t42 -69.5t14.5 -61.5h-122q-10 45 -37.5 70t-79.5 27q-30 1 -54 -7.5t-40 -23t-22.5 -33t-2.5 -37.5q3 -15 15 -26t30 -20
t40.5 -17t47.5 -16q42 -14 84.5 -30.5t76.5 -42.5t55.5 -65t21.5 -98q0 -51 -20.5 -91t-55.5 -67t-80.5 -41.5t-94.5 -14.5q-50 0 -97.5 18t-84.5 52.5t-59 84.5t-20 115h120q0 -31 9.5 -59.5t27.5 -49.5t44 -33.5t59 -12.5q60 0 96.5 25.5t36.5 73.5zM220 770l-119 170h133
l41 -57l40 57h133l-120 -170h-108z" />
    <glyph glyph-name="scaron" unicode="&#x161;" horiz-adv-x="418" 
d="M276 140q1 30 -20.5 43t-63.5 24q-28 7 -55 17t-49.5 26.5t-37.5 41t-19 60.5q-3 36 10 67t38 54t58.5 36.5t71.5 13.5q32 0 60 -11t50 -28.5t36 -39t19 -42.5h-117q-10 19 -52 19q-25 0 -45 -15t-14 -43q4 -17 29.5 -27t76.5 -27q30 -10 56 -24t45.5 -34t30.5 -48
t11 -65q0 -38 -15.5 -67.5t-41.5 -50t-60 -31.5t-71 -11q-33 0 -66.5 12.5t-60 35t-43.5 55t-17 71.5h117q1 -27 20.5 -47.5t51.5 -20.5q30 0 48 18t19 38zM143 560l-119 170h133l41 -57l40 57h133l-120 -170h-108z" />
    <glyph glyph-name="Utilde" unicode="&#x168;" horiz-adv-x="564" 
d="M161 220q0 -26 9.5 -48t26 -38.5t38.5 -26t48 -9.5t48.5 9.5t39 26t26 38.5t9.5 48v480h120v-480q0 -51 -18.5 -95t-51.5 -77t-77.5 -51.5t-95.5 -18.5t-95 18.5t-77 51.5t-51.5 77t-18.5 95v480h120v-480zM424 866q-25 -42 -56 -63.5t-63 -21.5q-35 0 -65 17
q-3 1 -21 -28l-102 61q24 43 56 64.5t64 21.5q16 0 32 -4t31 -13q2 -2 8.5 5.5t14.5 21.5z" />
    <glyph glyph-name="utilde" unicode="&#x169;" horiz-adv-x="533" 
d="M379 500h116v-272q0 -47 -18 -88t-48.5 -72.5t-72 -49.5t-88.5 -18t-88 18t-72.5 49.5t-49.5 73t-18 88.5v271h116v-272q0 -23 9 -43t24 -35t35.5 -23.5t43.5 -8.5t43 8.5t35 23.5t24 35t9 43v272zM415 656q-25 -42 -56 -63.5t-63 -21.5q-35 0 -65 17q-3 1 -21 -28
l-102 61q24 43 56 64.5t64 21.5q16 0 32 -4t31 -13q2 -2 8.5 5.5t14.5 21.5z" />
    <glyph glyph-name="Wcircumflex" unicode="&#x174;" horiz-adv-x="674" 
d="M338 262l-192 -262h-106v700h120v-478l178 241l179 -244v481h120v-700h-106zM390 915l120 -170h-133l-40 56l-42 -56h-132l119 170h108z" />
    <glyph glyph-name="wcircumflex" unicode="&#x175;" horiz-adv-x="872" 
d="M716 500h117v-293q0 -47 -18 -88.5t-48.5 -72.5t-72 -49t-88.5 -18q-51 0 -94 20t-75 55q-32 -35 -75 -55t-94 -20q-47 0 -88.5 18t-72 49t-48 72.5t-17.5 88.5v293h116v-293q0 -23 8.5 -43t23.5 -35t35 -24t43 -9q22 0 42.5 9t35.5 24t24 35t9 43v293h118v-293
q2 -49 33 -80t76 -31q22 0 42 9t35 24t24 35t9 43v293zM492 711l120 -170h-133l-40 56l-42 -56h-132l119 170h108z" />
    <glyph glyph-name="Ycircumflex" unicode="&#x176;" horiz-adv-x="619" 
d="M24 700h134l152 -295l77 149l75 146h135l-224 -427v-273h-125v271zM365 915l120 -170h-133l-40 56l-42 -56h-132l119 170h108z" />
    <glyph glyph-name="Ydieresis" unicode="&#x178;" horiz-adv-x="599" 
d="M15 700h134l152 -295l77 149l75 146h135l-224 -427v-273h-125v271zM140 835q0 27 18 45.5t46 18.5t46 -18.5t18 -45.5q0 -28 -18 -46.5t-46 -18.5t-46 18.5t-18 46.5zM333 835q0 27 18 45.5t46 18.5t46 -18.5t18 -45.5q0 -28 -18 -46.5t-46 -18.5t-46 18.5t-18 46.5z" />
    <glyph glyph-name="Zacute" unicode="&#x179;" horiz-adv-x="542" 
d="M29 0v101l327 479h-327v120h484v-101l-328 -479h328v-120h-484zM332 768h-124l68 167h123z" />
    <glyph glyph-name="zacute" unicode="&#x17a;" horiz-adv-x="440" 
d="M23 0l202 384h-185v116h380l-205 -384h187v-116h-379zM300 540h-124l68 167h123z" />
    <glyph glyph-name="Zdotaccent" unicode="&#x17b;" horiz-adv-x="543" 
d="M30 0v101l327 479h-327v120h484v-101l-328 -479h328v-120h-484zM210 834q0 28 18.5 46t45.5 18q28 0 46 -18t18 -46t-18 -46t-46 -18q-27 0 -45.5 18t-18.5 46z" />
    <glyph glyph-name="Zcaron" unicode="&#x17d;" horiz-adv-x="515" 
d="M17 0v101l327 479h-327v120h484v-101l-328 -479h328v-120h-484zM214 745l-119 170h133l41 -57l40 57h133l-120 -170h-108z" />
    <glyph glyph-name="zcaron" unicode="&#x17e;" horiz-adv-x="400" 
d="M3 0l202 384h-185v116h380l-205 -384h187v-116h-379zM151 540l-119 170h133l41 -57l40 57h133l-120 -170h-108z" />
    <glyph glyph-name="florin" unicode="&#x192;" horiz-adv-x="502" 
d="M132 0v-29q0 -30 29 -30q14 0 22.5 8.5t8.5 21.5v272h-46v116h46v194q0 31 8.5 57.5t26.5 46.5t45.5 31.5t65.5 11.5q40 0 68 -10.5t46 -30t26 -47t8 -59.5v-30h-116v30q0 12 -8 21t-22 9t-22 -9t-8 -21v-194h115v-116h-115v-272q0 -36 -12 -63t-32 -46t-47.5 -28.5
t-58.5 -9.5q-33 0 -60 11.5t-46 31.5t-29.5 47t-10.5 57v29h118z" />
    <glyph glyph-name="circumflex" unicode="&#x2c6;" horiz-adv-x="388" 
d="M247 892l120 -170h-133l-40 56l-42 -56h-132l119 170h108z" />
    <glyph glyph-name="caron" unicode="&#x2c7;" horiz-adv-x="386" 
d="M138 509l-119 170h133l41 -57l40 57h133l-120 -170h-108z" />
    <glyph glyph-name="dotaccent" unicode="&#x2d9;" horiz-adv-x="184" 
d="M28 775q0 28 18.5 46t45.5 18q28 0 46 -18t18 -46t-18 -46t-46 -18q-27 0 -45.5 18t-18.5 46z" />
    <glyph glyph-name="ogonek" unicode="&#x2db;" horiz-adv-x="268" 
d="M239 -290h-89q-24 0 -46 9t-38.5 25.5t-26.5 38t-10 47.5q0 42 27.5 74t66.5 43v113h116v-216h-79q-2 0 -8 -1.5t-6 -12.5t6 -12.5t8 -1.5h79v-106z" />
    <glyph glyph-name="tilde" unicode="&#x2dc;" horiz-adv-x="348" 
d="M327 797q-25 -42 -56 -63.5t-63 -21.5q-35 0 -65 17q-3 1 -21 -28l-102 61q24 43 56 64.5t64 21.5q16 0 32 -4t31 -13q2 -2 8.5 5.5t14.5 21.5z" />
    <glyph glyph-name="Wgrave" unicode="&#x1e80;" horiz-adv-x="672" 
d="M337 262l-192 -262h-106v700h120v-478l178 241l179 -244v481h120v-700h-106zM208 912h124l68 -167h-124z" />
    <glyph glyph-name="wgrave" unicode="&#x1e81;" horiz-adv-x="872" 
d="M716 500h117v-293q0 -47 -18 -88.5t-48.5 -72.5t-72 -49t-88.5 -18q-51 0 -94 20t-75 55q-32 -35 -75 -55t-94 -20q-47 0 -88.5 18t-72 49t-48 72.5t-17.5 88.5v293h116v-293q0 -23 8.5 -43t23.5 -35t35 -24t43 -9q22 0 42.5 9t35.5 24t24 35t9 43v293h118v-293
q2 -49 33 -80t76 -31q22 0 42 9t35 24t24 35t9 43v293zM307 707h124l68 -167h-124z" />
    <glyph glyph-name="Wacute" unicode="&#x1e82;" horiz-adv-x="672" 
d="M337 262l-192 -262h-106v700h120v-478l178 241l179 -244v481h120v-700h-106zM392 744h-124l68 167h123z" />
    <glyph glyph-name="wacute" unicode="&#x1e83;" horiz-adv-x="868" 
d="M712 500h117v-293q0 -47 -18 -88.5t-48.5 -72.5t-72 -49t-88.5 -18q-51 0 -94 20t-75 55q-32 -35 -75 -55t-94 -20q-47 0 -88.5 18t-72 49t-48 72.5t-17.5 88.5v293h116v-293q0 -23 8.5 -43t23.5 -35t35 -24t43 -9q22 0 42.5 9t35.5 24t24 35t9 43v293h118v-293
q2 -49 33 -80t76 -31q22 0 42 9t35 24t24 35t9 43v293zM496 540h-124l68 167h123z" />
    <glyph glyph-name="Wdieresis" unicode="&#x1e84;" horiz-adv-x="670" 
d="M336 262l-192 -262h-106v700h120v-478l178 241l179 -244v481h120v-700h-106zM174 834q0 27 18 45.5t46 18.5t46 -18.5t18 -45.5q0 -28 -18 -46.5t-46 -18.5t-46 18.5t-18 46.5zM367 834q0 27 18 45.5t46 18.5t46 -18.5t18 -45.5q0 -28 -18 -46.5t-46 -18.5t-46 18.5
t-18 46.5z" />
    <glyph glyph-name="wdieresis" unicode="&#x1e85;" horiz-adv-x="870" 
d="M712 500h117v-293q0 -47 -18 -88.5t-48.5 -72.5t-72 -49t-88.5 -18q-51 0 -94 20t-75 55q-32 -35 -75 -55t-94 -20q-47 0 -88.5 18t-72 49t-48 72.5t-17.5 88.5v293h116v-293q0 -23 8.5 -43t23.5 -35t35 -24t43 -9q22 0 42.5 9t35.5 24t24 35t9 43v293h118v-293
q2 -49 33 -80t76 -31q22 0 42 9t35 24t24 35t9 43v293zM273 626q0 27 18 45.5t46 18.5t46 -18.5t18 -45.5q0 -28 -18 -46.5t-46 -18.5t-46 18.5t-18 46.5zM466 626q0 27 18 45.5t46 18.5t46 -18.5t18 -45.5q0 -28 -18 -46.5t-46 -18.5t-46 18.5t-18 46.5z" />
    <glyph glyph-name="Ygrave" unicode="&#x1ef2;" horiz-adv-x="617" 
d="M24 700h134l152 -295l77 149l75 146h135l-224 -427v-273h-125v271zM179 912h124l68 -167h-124z" />
    <glyph glyph-name="endash" unicode="&#x2013;" horiz-adv-x="503" 
d="M40 205v116h423v-116h-423z" />
    <glyph glyph-name="emdash" unicode="&#x2014;" horiz-adv-x="575" 
d="M40 205v116h495v-116h-495z" />
    <glyph glyph-name="quoteleft" unicode="&#x2018;" horiz-adv-x="163" 
d="M146 575q0 -28 -18.5 -46.5t-45.5 -18.5q-28 0 -46.5 18.5t-18.5 46.5v35q0 25 5 41.5t22 30.5q20 16 31.5 17.5t15.5 -5.5t2.5 -20t-7.5 -26q-1 -4 0 -5.5t10 -3.5q17 -2 27 -9t15 -16.5t6.5 -19.5t1.5 -19z" />
    <glyph glyph-name="quoteright" unicode="&#x2019;" horiz-adv-x="160" 
d="M15 635q0 28 18.5 46.5t45.5 18.5q28 0 46.5 -18.5t18.5 -46.5v-35q0 -25 -5 -41.5t-22 -30.5q-20 -16 -31.5 -17.5t-15.5 5.5t-2.5 20t7.5 26q1 4 0 5.5t-10 3.5q-17 2 -27 9t-15 16.5t-6.5 19.5t-1.5 19z" />
    <glyph glyph-name="quotesinglbase" unicode="&#x201a;" horiz-adv-x="160" 
d="M15 64q0 28 18.5 46.5t45.5 18.5q28 0 46.5 -18.5t18.5 -46.5v-35q0 -25 -5 -41.5t-22 -30.5q-20 -16 -31.5 -17.5t-15.5 5.5t-2.5 20t7.5 26q1 4 0 5.5t-10 3.5q-17 2 -27 9t-15 16.5t-6.5 19.5t-1.5 19z" />
    <glyph glyph-name="quotedblleft" unicode="&#x201c;" horiz-adv-x="337" 
d="M313 575q0 -28 -18.5 -46.5t-45.5 -18.5q-28 0 -46.5 18.5t-18.5 46.5v35q0 25 5 41.5t22 30.5q20 16 31.5 17.5t15.5 -5.5t2.5 -20t-7.5 -26q-1 -4 0 -5.5t10 -3.5q17 -2 27 -9t15 -16.5t6.5 -19.5t1.5 -19zM153 575q0 -28 -18.5 -46.5t-45.5 -18.5q-28 0 -46.5 18.5
t-18.5 46.5v35q0 25 5 41.5t22 30.5q20 16 31.5 17.5t15.5 -5.5t2.5 -20t-7.5 -26q-1 -4 0 -5.5t10 -3.5q17 -2 27 -9t15 -16.5t6.5 -19.5t1.5 -19z" />
    <glyph glyph-name="quotedblright" unicode="&#x201d;" horiz-adv-x="333" 
d="M22 635q0 28 18.5 46.5t45.5 18.5q28 0 46.5 -18.5t18.5 -46.5v-35q0 -25 -5 -41.5t-22 -30.5q-20 -16 -31.5 -17.5t-15.5 5.5t-2.5 20t7.5 26q1 4 0 5.5t-10 3.5q-17 2 -27 9t-15 16.5t-6.5 19.5t-1.5 19zM182 635q0 28 18.5 46.5t45.5 18.5q28 0 46.5 -18.5t18.5 -46.5
v-35q0 -25 -5 -41.5t-22 -30.5q-20 -16 -31.5 -17.5t-15.5 5.5t-2.5 20t7.5 26q1 4 0 5.5t-10 3.5q-17 2 -27 9t-15 16.5t-6.5 19.5t-1.5 19z" />
    <glyph glyph-name="quotedblbase" unicode="&#x201e;" horiz-adv-x="333" 
d="M22 63q0 28 18.5 46.5t45.5 18.5q28 0 46.5 -18.5t18.5 -46.5v-35q0 -25 -5 -41.5t-22 -30.5q-20 -16 -31.5 -17.5t-15.5 5.5t-2.5 20t7.5 26q1 4 0 5.5t-10 3.5q-17 2 -27 9t-15 16.5t-6.5 19.5t-1.5 19zM182 63q0 28 18.5 46.5t45.5 18.5q28 0 46.5 -18.5t18.5 -46.5
v-35q0 -25 -5 -41.5t-22 -30.5q-20 -16 -31.5 -17.5t-15.5 5.5t-2.5 20t7.5 26q1 4 0 5.5t-10 3.5q-17 2 -27 9t-15 16.5t-6.5 19.5t-1.5 19z" />
    <glyph glyph-name="dagger" unicode="&#x2020;" horiz-adv-x="406" 
d="M383 500v-116h-121v-576h-116v576h-121v116h121v289h116v-289h121z" />
    <glyph glyph-name="daggerdbl" unicode="&#x2021;" horiz-adv-x="544" 
d="M507 500v-116h-182v-72h182v-116h-182v-388h-116v388h-180v116h180v72h-180v116h180v289h116v-289h182z" />
    <glyph glyph-name="bullet" unicode="&#x2022;" horiz-adv-x="262" 
d="M28 294q0 45 29.5 74t73.5 29q45 0 74 -29t29 -74q0 -44 -29 -73.5t-74 -29.5q-44 0 -73.5 29.5t-29.5 73.5z" />
    <glyph glyph-name="ellipsis" unicode="&#x2026;" horiz-adv-x="569" 
d="M37 64q0 28 18.5 46.5t45.5 18.5q28 0 46.5 -18.5t18.5 -46.5q0 -27 -18.5 -45.5t-46.5 -18.5q-27 0 -45.5 18.5t-18.5 45.5zM216 64q0 28 18.5 46.5t45.5 18.5q28 0 46 -18.5t18 -46.5q0 -27 -18 -45.5t-46 -18.5q-27 0 -45.5 18.5t-18.5 45.5zM404 64q0 28 18 46.5
t46 18.5t46 -18.5t18 -46.5q0 -27 -18 -45.5t-46 -18.5t-46 18.5t-18 45.5z" />
    <glyph glyph-name="perthousand" unicode="&#x2030;" horiz-adv-x="531" 
d="M28 637q0 28 18 46t46 18q27 0 45.5 -18t18.5 -46q0 -27 -18.5 -45.5t-45.5 -18.5q-28 0 -46 18.5t-18 45.5zM219 64q0 28 18.5 46.5t45.5 18.5q28 0 46.5 -18.5t18.5 -46.5q0 -27 -18.5 -45.5t-46.5 -18.5q-27 0 -45.5 18.5t-18.5 45.5zM373 64q0 28 18.5 46.5
t45.5 18.5q28 0 46.5 -18.5t18.5 -46.5q0 -27 -18.5 -45.5t-46.5 -18.5q-27 0 -45.5 18.5t-18.5 45.5zM179 0h-124l226 700h123z" />
    <glyph glyph-name="guilsinglleft" unicode="&#x2039;" horiz-adv-x="372" 
d="M275 499l81 -82l-177 -168l177 -168l-81 -82l-260 250z" />
    <glyph glyph-name="guilsinglright" unicode="&#x203a;" horiz-adv-x="372" 
d="M356 249l-260 -250l-81 82l177 168l-177 168l81 82z" />
    <glyph glyph-name="fraction" unicode="&#x2044;" horiz-adv-x="365" 
d="M132 0h-124l226 700h123z" />
    <glyph glyph-name="Euro" unicode="&#x20ac;" horiz-adv-x="823" 
d="M218 350q0 -6 1 -24h281v-116h-239q34 -51 89 -81.5t121 -30.5q52 0 98 20.5t81 55.5h151q-23 -43 -56.5 -79t-75.5 -62t-92 -40.5t-106 -14.5q-58 0 -111 17t-98 48t-79.5 73.5t-55.5 93.5h-105v116h78q-1 18 -1 24q0 9 1 35h-78v116h109q22 48 56.5 89t79 70t96 45.5
t108.5 16.5t107 -16t92.5 -43.5t75.5 -63.5t55 -76h-152q-36 36 -81 57t-97 21q-62 0 -114 -27.5t-87 -72.5h230v-116h-280q-2 -26 -2 -35z" />
    <glyph glyph-name="minus" unicode="&#x2212;" horiz-adv-x="438" 
d="M398 332v-116h-358v116h358z" />
    <glyph glyph-name="fi" unicode="&#xfb01;" horiz-adv-x="407" 
d="M192 359h176v-359h-116v243h-60v-243h-118v243h-46v116h46v194q0 31 8.5 57.5t26.5 46.5t45.5 31.5t65.5 11.5q40 0 68 -10.5t46 -30t26 -47t8 -59.5v-60h-116v60q0 12 -8 21t-22 9t-22 -9t-8 -21v-194z" />
    <glyph glyph-name="fl" unicode="&#xfb02;" horiz-adv-x="400" 
d="M193 359h41v-116h-41v-243h-118v243h-45v116h45v173q0 31 11.5 57.5t31.5 46.5t46.5 31.5t57.5 11.5t57.5 -11.5t46.5 -31.5t31.5 -46.5t11.5 -57.5v-532h-116v532q0 12 -8.5 21t-21.5 9t-21.5 -9t-8.5 -21v-173z" />
    </font>
</defs>
</svg>
