<?xml version="1.0" standalone="no"?>
<!DOCTYPE svg PUBLIC "-//W3C//DTD SVG 1.1//EN" "http://www.w3.org/Graphics/SVG/1.1/DTD/svg11.dtd" >
<svg>
<metadata>
Created by FontForge 20090622 at Tue Mar  5 20:58:29 2013
 By root
Copyright (c) 2011 by monocromo. All rights reserved.
</metadata>
<defs>
<font id="Opificio" horiz-adv-x="604" >
  <font-face 
    font-family="Opificio"
    font-weight="400"
    font-stretch="normal"
    units-per-em="1000"
    panose-1="2 0 5 6 0 0 0 2 0 4"
    ascent="800"
    descent="-200"
    x-height="500"
    cap-height="700"
    bbox="-159 -264 1071 899"
    underline-thickness="50"
    underline-position="-50"
    unicode-range="U+0020-U+FB02"
  />
<missing-glyph horiz-adv-x="426" 
 />
    <glyph glyph-name=".notdef" horiz-adv-x="426" 
 />
    <glyph glyph-name=".null" horiz-adv-x="0" 
 />
    <glyph glyph-name="nonmarkingreturn" horiz-adv-x="426" 
 />
    <glyph glyph-name="space" unicode=" " horiz-adv-x="335" 
 />
    <glyph glyph-name="space" unicode="&#xa0;" horiz-adv-x="335" 
 />
    <glyph glyph-name="exclam" unicode="!" horiz-adv-x="138" 
d="M104 131h-70v569h70v-569zM110 42q0 -18 -12 -30t-30 -12t-30 12t-12 30t12 30t30 12t30 -12t12 -30z" />
    <glyph glyph-name="quotedbl" unicode="&#x22;" horiz-adv-x="241" 
d="M40 700h62v-163h-62v163zM140 700h62v-163h-62v163z" />
    <glyph glyph-name="numbersign" unicode="#" horiz-adv-x="565" 
d="M540 500v-70h-121l-25 -86h112v-70h-132l-77 -274h-74l77 274h-86l-77 -274h-74l77 274h-109v70h129l25 86h-120v70h139l57 200h74l-57 -200h86l57 200h74l-57 -200h102zM234 344h86l25 86h-86z" />
    <glyph glyph-name="dollar" unicode="$" horiz-adv-x="534" 
d="M240 773h70v-52q30 -4 55 -16q40 -19 68 -45.5t43.5 -55.5t18.5 -49h-77q-19 48 -60 73q-23 14 -48 20v-254q7 -2 15 -4q50 -16 92 -41.5t69.5 -65.5t27.5 -104q0 -48 -20 -86t-53.5 -64t-77.5 -39q-26 -8 -53 -12v-52h-70v52q-32 4 -63 15q-46 17 -81 47.5t-56.5 73.5
t-21.5 95h70q0 -34 14.5 -64t39.5 -52t58 -35q20 -8 40 -11v300q-41 14 -78 31q-45 20 -79 50.5t-44 80.5q-5 43 12.5 82t50 68.5t76.5 46.5q30 12 62 16v51zM444 179q0 49 -27 79t-69 49q-18 9 -38 17v-275q13 2 26 6q31 8 55 24.5t38.5 41t14.5 58.5zM209 644
q-31 -11 -54.5 -30t-36 -45t-6.5 -55q8 -35 40.5 -55.5t77.5 -36.5l10 -4v234q-16 -3 -31 -8z" />
    <glyph glyph-name="percent" unicode="%" horiz-adv-x="356" 
d="M101 0h-74l225 700h77zM27 659q0 18 12 30t30 12t30 -12t12 -30t-12 -30t-30 -12t-30 12t-12 30zM246 42q0 18 12 30t30 12t30 -12t12 -30t-12 -30t-30 -12t-30 12t-12 30z" />
    <glyph glyph-name="ampersand" unicode="&#x26;" horiz-adv-x="634" 
d="M470 106l-65 -64q-33 -33 -74 -49.5t-84.5 -16.5t-84.5 16t-74 49t-47.5 75.5t-11 88t27 89t67.5 77.5l62 51l-17 18q-29 32 -45 59.5t-16 59.5q0 29 11 55t30 45t44.5 30t54.5 11t55 -11t45 -30t30 -45t11 -55q0 -41 -20.5 -70.5t-52.5 -52.5l-31 -22l187 -207l98 100
l50 -50l-101 -102l99 -109l-52 -46zM423 158l-187 215l-64 -54q-38 -32 -56 -63t-20.5 -60t9 -55.5t34.5 -48.5q22 -23 50.5 -34t58 -11.5t57.5 10.5t51 34zM178 559q1 -25 17 -45t30 -34l14 -15l22 14q13 8 25.5 20t22 27t9.5 33q0 29 -20.5 49.5t-49.5 20.5t-50 -20.5
t-20 -49.5z" />
    <glyph glyph-name="quotesingle" unicode="'" horiz-adv-x="140" 
d="M40 700h62v-163h-62v163z" />
    <glyph glyph-name="parenleft" unicode="(" horiz-adv-x="199" 
d="M106 -70q0 -16 6.5 -30t17.5 -24t25 -16t30 -6v-71q-30 0 -57.5 11.5t-47.5 31t-32 46.5t-12 58v747q0 31 12 58t32 46.5t47.5 31t57.5 11.5v-71q-16 0 -30 -6t-25 -16t-17.5 -24t-6.5 -30v-747z" />
    <glyph glyph-name="parenright" unicode=")" horiz-adv-x="199" 
d="M95 677q0 16 -6.5 30t-17.5 24t-25 16t-30 6v71q30 0 57.5 -11.5t47.5 -31t32 -46.5t12 -58v-747q0 -31 -12 -58t-32 -46.5t-47.5 -31t-57.5 -11.5v71q16 0 30 6t25 16t17.5 24t6.5 30v747z" />
    <glyph glyph-name="asterisk" unicode="*" horiz-adv-x="210" 
d="M86 641v59h37v-59l51 29l18 -33l-50 -28l50 -28l-18 -31l-51 28v-58h-37v58l-50 -28l-18 31l49 28l-49 28l18 33z" />
    <glyph glyph-name="plus" unicode="+" horiz-adv-x="356" 
d="M349 342v-70h-137v-137h-70v137h-134v70h134v134h70v-134h137z" />
    <glyph glyph-name="comma" unicode="," horiz-adv-x="134" 
d="M25 42q0 18 12 30t30 12t30 -12t12 -30v-39q0 -20 -6 -35.5t-24 -25.5q-25 -13 -32 -5t1 20q8 10 13.5 19.5t5.5 23.5q-18 0 -30 12t-12 30z" />
    <glyph glyph-name="hyphen" unicode="-" horiz-adv-x="421" 
d="M381 342v-70h-341v70h341z" />
    <glyph glyph-name="period" unicode="." horiz-adv-x="141" 
d="M29 42q0 18 12 30t30 12t30 -12t12 -30t-12 -30t-30 -12t-30 12t-12 30z" />
    <glyph glyph-name="slash" unicode="/" horiz-adv-x="312" 
d="M79 0h-74l228 700h74z" />
    <glyph glyph-name="zero" unicode="0" horiz-adv-x="803" 
d="M28 350q0 77 29.5 145t80.5 119t119 80.5t145 29.5t145 -29.5t119 -80.5t80.5 -119t29.5 -145t-29.5 -145t-80.5 -119t-119 -80.5t-145 -29.5t-145 29.5t-119 80.5t-80.5 119t-29.5 145zM98 350q0 -62 24 -117.5t65.5 -97t97 -65.5t117.5 -24t117 24t96.5 65.5t65.5 97
t24 117.5t-24 117t-65.5 96.5t-96.5 65.5t-117 24t-117.5 -24t-97 -65.5t-65.5 -96.5t-24 -117z" />
    <glyph glyph-name="one" unicode="1" horiz-adv-x="214" 
d="M175 700v-700h-70v631h-101v69h171z" />
    <glyph glyph-name="two" unicode="2" horiz-adv-x="506" 
d="M410 658q33 -33 49 -73.5t16 -83t-16 -83.5t-49 -73l-290 -275h364v-70h-466v70l343 323q22 22 33.5 50.5t11.5 57.5t-11.5 57t-33.5 50q-23 22 -50.5 33.5t-57 11.5t-57.5 -11.5t-50 -33.5q-21 -21 -32 -47.5t-13 -54.5h-70q1 42 17 81t48 71q33 33 73.5 49t83.5 16
t83.5 -16t73.5 -49z" />
    <glyph glyph-name="three" unicode="3" horiz-adv-x="593" 
d="M510 700v-1l1 1v-70l-139 -114q19 -5 37 -13q50 -21 87.5 -58.5t59 -87.5t21.5 -107t-21.5 -107t-59 -87.5t-87.5 -59t-107 -21.5t-107 21.5t-87.5 59t-59.5 87.5q-21 49 -21 106h70q0 -42 16 -79t44 -65t65.5 -44t79.5 -16t79.5 16t65.5 44t44 65.5t16 79.5t-16 79.5
t-51 69.5t-84 43q-53 9 -100 2v75l151 111h-340v70h443z" />
    <glyph glyph-name="four" unicode="4" horiz-adv-x="486" 
d="M397 196h82v-70h-82v-126h-70v126h-314l139 574h72l-122 -504h225v123h70v-123z" />
    <glyph glyph-name="five" unicode="5" horiz-adv-x="596" 
d="M190 485q66 41 142 40q57 0 107 -21.5t87.5 -59t59 -87.5t21.5 -107t-21.5 -107t-59 -87.5t-87.5 -59t-107 -21.5t-107 21.5t-87.5 59t-59.5 87.5q-21 49 -21 106h70q0 -42 16 -79t44 -65t65.5 -44t79.5 -16t79.5 16t65.5 44t44 65.5t16 79.5t-16 79.5t-44 65.5t-65.5 44
t-84.5 16q-48 0 -90 -16.5t-67 -50.5h-70l62 312h348v-70h-292z" />
    <glyph glyph-name="six" unicode="6" horiz-adv-x="605" 
d="M31 449q0 57 21.5 107t59 87.5t87.5 59t107 21.5t107 -22q47 -20 83 -56l-48 -49q-27 26 -63 40q-37 16 -79 16t-79.5 -15.5t-65.5 -43.5t-44 -65.5t-16 -79.5v-15q5 6 10 11q38 38 88 59.5t107 21.5t107 -21.5t87.5 -59t59 -87.5t21.5 -107t-21.5 -107t-59 -87.5
t-87.5 -59t-107 -21.5t-107 21.5t-87.5 59t-59 87.5t-21.5 107v198zM101 251q0 -42 16 -79.5t44 -65.5t65.5 -44t79.5 -16t79.5 16t65.5 44t44 65.5t16 79.5t-16 79.5t-44 65.5t-65.5 44t-79.5 16t-79.5 -16t-65.5 -44t-44 -65.5t-16 -79.5z" />
    <glyph glyph-name="seven" unicode="7" horiz-adv-x="495" 
d="M108 0h-85l345 630h-345v70h469z" />
    <glyph glyph-name="eight" unicode="8" horiz-adv-x="594" 
d="M163 590q0 28 10.5 52.5t28.5 42.5t42.5 28.5t52.5 10.5t52.5 -10.5t42.5 -28.5t28.5 -42.5t10.5 -52.5q0 -49 -30 -85l3 -1q50 -21 87.5 -58.5t59 -87.5t21.5 -107t-21.5 -107t-59 -87.5t-87.5 -59t-107 -21.5t-107 21.5t-87.5 59t-59 87.5t-21.5 107t21.5 107t59 87.5
t87.5 58.5l3 1q-30 36 -30 85zM92 251q0 -42 16 -79.5t44 -65.5t65.5 -44t79.5 -16t79.5 16t65.5 44t44 65.5t16 79.5t-16 79.5t-44 65.5t-66 44q-35 15 -74 16h-5q-42 0 -79.5 -16t-65.5 -44t-44 -65.5t-16 -79.5zM233 590q0 -26 19 -45t45 -19h5q24 2 41.5 20t17.5 44
t-19 45t-45 19t-45 -19t-19 -45z" />
    <glyph glyph-name="nine" unicode="9" horiz-adv-x="605" 
d="M574 449v-12q-1 -244 -22 -293q-21 -50 -58.5 -87.5t-87.5 -59t-107 -21.5t-107 22q-47 20 -83 56l48 49q27 -26 63 -40q37 -16 79 -16t79.5 15.5t65.5 43.5t44 65.5t16 79.5v14l-11 -11q-37 -37 -87 -58.5t-107 -21.5t-107 21.5t-87.5 59t-59 87.5t-21.5 107t21.5 107
t59 87.5t87.5 59t107 21.5t107 -21.5t87.5 -59t59 -87.5t21.5 -107zM504 449q0 42 -16 79.5t-44 65.5t-65.5 44t-79.5 16t-79.5 -16t-65.5 -44t-44 -65.5t-16 -79.5t16 -79.5t44 -65.5t65.5 -44t79.5 -16t79.5 16t65.5 44t44 65.5t16 79.5z" />
    <glyph glyph-name="colon" unicode=":" horiz-adv-x="145" 
d="M31 42q0 18 12 30t30 12t30 -12t12 -30t-12 -30t-30 -12t-30 12t-12 30zM31 458q0 18 12 30t30 12t30 -12t12 -30t-12 -30t-30 -12t-30 12t-12 30z" />
    <glyph glyph-name="semicolon" unicode=";" horiz-adv-x="139" 
d="M25 458q0 18 12 30t30 12t30 -12t12 -30t-12 -30t-30 -12t-30 12t-12 30zM25 42q0 18 12 30t30 12t30 -12t12 -30v-39q0 -13 -5.5 -26t-19.5 -22q-25 -13 -32 -5t4 18q24 13 17 32q-28 0 -38 12t-10 30z" />
    <glyph glyph-name="less" unicode="&#x3c;" horiz-adv-x="438" 
d="M3 213v77l397 172v-77l-308 -134l308 -133v-77z" />
    <glyph glyph-name="equal" unicode="=" horiz-adv-x="556" 
d="M516 356v-70h-476v70h476zM516 216v-70h-476v70h476z" />
    <glyph glyph-name="greater" unicode="&#x3e;" horiz-adv-x="440" 
d="M40 41v77l308 133l-308 134v77l397 -172v-77z" />
    <glyph glyph-name="question" unicode="?" horiz-adv-x="496" 
d="M274 42q0 -18 -12 -30t-30 -12t-30 12t-12 30t12 30t30 12t30 -12t12 -30zM196 273h38q37 0 70 14t57.5 38.5t38.5 57t14 70.5q0 37 -14 70t-38.5 57.5t-57.5 38.5t-70 14q-50 0 -89 -19t-63 -58h-74q28 68 88 106t138 38q51 0 96 -19.5t78.5 -53t53 -78.5t19.5 -96
q0 -47 -16.5 -89t-45.5 -74.5t-68.5 -53.5t-84.5 -27v-78h-70v142z" />
    <glyph glyph-name="at" unicode="@" horiz-adv-x="809" 
d="M706 350q0 63 -24 118t-65.5 96.5t-96.5 65.5t-118 24t-118 -24t-96.5 -65.5t-65.5 -96.5t-24 -118t24 -118t65.5 -96.5t96.5 -65.5t118 -24v-70q-77 0 -145 29.5t-119 80.5t-80.5 119t-29.5 145t29.5 145t80.5 119t119 80.5t145 29.5t145 -29.5t119 -80.5t80.5 -119
t29.5 -145v-269q0 -21 -8.5 -40.5t-22.5 -33.5t-33 -22.5t-41 -8.5t-41 8.5t-33 22.5t-22 33.5t-8 40.5v102q-32 -31 -74 -49t-91 -18t-91.5 18.5t-74 50t-50 74t-18.5 91.5t18.5 91.5t50 74.5t74 50.5t91.5 18.5t91.5 -18.5t74.5 -50.5t50.5 -74.5t18.5 -91.5v-269
q0 -14 10 -24t24 -10t24.5 10t10.5 24v269zM237 350q0 -34 13 -64t35.5 -52.5t52.5 -35.5t64 -13t64 13t52.5 35.5t35.5 52.5t13 64t-13 64t-35.5 52.5t-52.5 35.5t-64 13t-64 -13t-52.5 -35.5t-35.5 -52.5t-13 -64z" />
    <glyph glyph-name="A" unicode="A" horiz-adv-x="554" 
d="M538 0h-73l-88 272h-201l-87 -272h-73l224 700h74zM199 342h156l-78 243z" />
    <glyph glyph-name="B" unicode="B" horiz-adv-x="533" 
d="M444 51q-65 -51 -175 -51h-229v700h188q108 0 170 -50q60 -51 60 -139q0 -45 -15.5 -79t-44.5 -60q-2 -2 -4 -3q28 -11 50 -28q31 -29 47 -63.5t16 -82.5q0 -89 -63 -144zM387 104q43 36 43 92q0 60 -43 94q-39 33 -117 33h-160v-252h160q78 0 117 33zM343 423
q40 32 40 88q0 55 -40 89q-43 32 -113 32h-120v-241h150q46 0 83 32z" />
    <glyph glyph-name="C" unicode="C" horiz-adv-x="763" 
d="M98 350q0 -62 24 -117.5t65.5 -97t97 -65.5t117.5 -24t117 24t96 65q18 18 33 39h83q-26 -49 -65 -88q-51 -51 -119 -80.5t-145 -29.5t-145 29.5t-119 80.5t-80.5 119t-29.5 145t29.5 145t80.5 119t119 80.5t145 29.5t145 -29.5t119 -80.5q39 -39 65 -88h-84
q-14 20 -32 37q-41 42 -96 66t-117 24t-117.5 -24t-97 -65.5t-65.5 -96.5t-24 -117z" />
    <glyph glyph-name="D" unicode="D" horiz-adv-x="649" 
d="M40 700h235q72 0 136 -27.5t111 -74.5t74.5 -111t27.5 -136t-27.5 -136t-74.5 -112t-111 -75.5t-136 -27.5h-235v700zM275 70q58 0 108.5 22t88.5 60.5t60 89.5t22 109t-22 108.5t-60 88.5t-88.5 60t-108.5 22h-165v-560h165z" />
    <glyph glyph-name="E" unicode="E" horiz-adv-x="519" 
d="M40 700h466v-70h-396v-288h326v-70h-326v-202h396v-70h-466v700z" />
    <glyph glyph-name="F" unicode="F" horiz-adv-x="539" 
d="M40 700h466v-70h-396v-288h326v-70h-326v-272h-70v700z" />
    <glyph glyph-name="G" unicode="G" horiz-adv-x="795" 
d="M743 342q1 -165 -58.5 -239t-132.5 -100.5t-150 -26.5t-145 29.5t-119 80.5t-80.5 119t-29.5 145t29.5 145t80.5 119t119 80.5t145 29.5t145 -29.5t119 -80.5q39 -39 65 -88h-84q-14 20 -32 37q-41 42 -96 66t-117 24t-117.5 -24t-97 -65.5t-65.5 -96.5t-24 -117
t24 -117.5t65.5 -97t97 -65.5t117.5 -24t120 19.5t100 75.5t40 131h-234v70h315z" />
    <glyph glyph-name="H" unicode="H" horiz-adv-x="546" 
d="M436 700h70v-700h-70v272h-326v-272h-70v700h70v-358h326v358z" />
    <glyph glyph-name="I" unicode="I" horiz-adv-x="148" 
d="M40 700h70v-700h-70v700z" />
    <glyph glyph-name="J" unicode="J" horiz-adv-x="515" 
d="M83 209q0 -34 12.5 -63.5t34.5 -51.5t52 -35t64 -13t63.5 13t51.5 35t35 51.5t13 63.5v421h-326v70h396v-491q0 -48 -18.5 -90.5t-50 -74t-74 -50t-90.5 -18.5t-90.5 18.5t-74 50t-50 74t-18.5 90.5h70z" />
    <glyph glyph-name="K" unicode="K" horiz-adv-x="528" 
d="M505 0h-88l-265 322l-42 -50v-272h-70v700h70v-317l261 317h96l-269 -323z" />
    <glyph glyph-name="L" unicode="L" horiz-adv-x="535" 
d="M506 70v-70h-466v700h70v-630h396z" />
    <glyph glyph-name="M" unicode="M" horiz-adv-x="667" 
d="M558 700h70v-700h-70v582l-225 -305l-223 304v-581h-70v700h70l223 -305z" />
    <glyph glyph-name="N" unicode="N" horiz-adv-x="546" 
d="M436 700h70v-700h-70l-326 560v-560h-70v700h70l326 -560v560z" />
    <glyph glyph-name="O" unicode="O" horiz-adv-x="803" 
d="M28 350q0 77 29.5 145t80.5 119t119 80.5t145 29.5t145 -29.5t119 -80.5t80.5 -119t29.5 -145t-29.5 -145t-80.5 -119t-119 -80.5t-145 -29.5t-145 29.5t-119 80.5t-80.5 119t-29.5 145zM98 350q0 -62 24 -117.5t65.5 -97t97 -65.5t117.5 -24t117 24t96.5 65.5t65.5 97
t24 117.5t-24 117t-65.5 96.5t-96.5 65.5t-117 24t-117.5 -24t-97 -65.5t-65.5 -96.5t-24 -117z" />
    <glyph glyph-name="P" unicode="P" horiz-adv-x="498" 
d="M40 700h208q108 0 170 -50q60 -51 60 -163q0 -72 -15.5 -106t-44.5 -60q-62 -49 -170 -49h-138v-272h-70v700zM363 372q40 32 40 115q0 79 -40 113q-43 32 -113 32h-140v-292h140q70 0 113 32z" />
    <glyph glyph-name="Q" unicode="Q" horiz-adv-x="796" 
d="M22 350q0 77 29.5 145t80.5 119t119 80.5t145 29.5t145 -29.5t119 -80.5t80.5 -119t29.5 -145t-29.5 -145t-80.5 -119q-48 -48 -112 -77q4 -15 17 -27q18 -17 43 -17v-70q-27 0 -50.5 10t-41 27.5t-27.5 41.5q-3 6 -5 13q-43 -11 -88 -11q-77 0 -145 29.5t-119 80.5
t-80.5 119t-29.5 145zM92 350q0 -62 24 -117.5t65.5 -97t97 -65.5t117.5 -24q38 0 74 9q-4 6 -9 11q-18 17 -43 17v70q27 0 50.5 -10t40.5 -28q16 -15 25 -35q42 22 75 55q42 42 66 97.5t24 117.5t-24 117t-65.5 96.5t-96.5 65.5t-117 24t-117.5 -24t-97 -65.5t-65.5 -96.5
t-24 -117z" />
    <glyph glyph-name="R" unicode="R" horiz-adv-x="508" 
d="M40 700h208q102 0 167 -50q31 -29 47 -71.5t16 -90.5q0 -110 -63 -165q-13 -10 -28 -19q14 -8 27 -17q63 -55 63 -144v-143h-70v143q0 30 -11 53t-33 42q-37 34 -104 34h-149v-272h-70v700zM363 372q44 37 44 117q0 79 -44 114q-40 34 -114 34h-139v-299h139q74 0 114 34
z" />
    <glyph glyph-name="S" unicode="S" horiz-adv-x="546" 
d="M450 179q0 49 -27 79t-68.5 49.5t-91.5 35t-95 35.5t-79 50.5t-44 80.5q-5 43 12.5 82t50 68.5t77 47t92.5 17.5q54 0 94 -19t68 -45.5t43.5 -55.5t18.5 -49h-77q-19 48 -60 73t-87 26q-31 1 -62 -10t-54.5 -30t-36 -45t-6.5 -55q8 -35 40.5 -55.5t77.5 -36.5t95 -32
t92 -41.5t69.5 -65.5t27.5 -104q0 -48 -20 -86t-53.5 -64t-77.5 -39.5t-92 -13.5t-94 17t-81 47.5t-56.5 73.5t-21.5 95h70q0 -34 14.5 -64t39.5 -52t58.5 -35t70.5 -12q34 1 65 9t55 24.5t38.5 41t14.5 58.5z" />
    <glyph glyph-name="T" unicode="T" horiz-adv-x="486" 
d="M10 630v70h466v-70h-198v-630h-70v630h-198z" />
    <glyph glyph-name="U" unicode="U" horiz-adv-x="538" 
d="M106 209q0 -34 12.5 -64t34.5 -52t52 -34.5t64 -12.5t64 12.5t52 34.5t34.5 52t12.5 64v491h70v-491q0 -49 -18 -91.5t-49.5 -74t-74 -49.5t-91.5 -18t-91.5 18t-74 49.5t-49.5 74t-18 91.5v491h70v-491z" />
    <glyph glyph-name="V" unicode="V" horiz-adv-x="554" 
d="M16 700h73l188 -585l188 585h73l-224 -700h-74z" />
    <glyph glyph-name="W" unicode="W" horiz-adv-x="663" 
d="M333 305l-223 -305h-70v700h70v-581l223 304l225 -305v582h70v-700h-70z" />
    <glyph glyph-name="X" unicode="X" horiz-adv-x="526" 
d="M110 0h-80l192 350l-180 350h81l140 -274l139 274h81l-180 -350l193 -350h-80l-153 274z" />
    <glyph glyph-name="Y" unicode="Y" horiz-adv-x="548" 
d="M13 700h77l184 -357l184 357h77l-223 -425v-275h-75v273z" />
    <glyph glyph-name="Z" unicode="Z" horiz-adv-x="514" 
d="M24 0v70l382 560h-382v70h466v-70l-384 -560h384v-70h-466z" />
    <glyph glyph-name="bracketleft" unicode="[" horiz-adv-x="223" 
d="M40 824h175v-70h-105v-902h105v-70h-175v1042z" />
    <glyph glyph-name="backslash" unicode="\" horiz-adv-x="312" 
d="M5 700h74l228 -700h-74z" />
    <glyph glyph-name="bracketright" unicode="]" horiz-adv-x="222" 
d="M183 -218h-175v70h105v902h-105v70h175v-1042z" />
    <glyph glyph-name="asciicircum" unicode="^" horiz-adv-x="455" 
d="M189 700h77l172 -397h-77l-134 308l-133 -308h-77z" />
    <glyph glyph-name="underscore" unicode="_" horiz-adv-x="584" 
d="M40 0v70h504v-70h-504z" />
    <glyph glyph-name="grave" unicode="`" horiz-adv-x="161" 
d="M17 700h74l51 -127h-74z" />
    <glyph glyph-name="a" unicode="a" horiz-adv-x="610" 
d="M27 251q0 57 21.5 107t59 87.5t87.5 59t107 21.5t107 -21.5t87.5 -59t59 -87.5t21.5 -107v-251h-70v67l-11 -11q-37 -37 -87 -58.5t-107 -21.5t-107 21.5t-87.5 59t-59 87.5t-21.5 107zM97 251q0 -42 16 -79.5t44 -65.5t65.5 -44t79.5 -16t79.5 16t65.5 44t44 65
q14 34 16 71v9q0 42 -16 79.5t-44 65.5t-65.5 44t-79.5 16t-79.5 -16t-65.5 -44t-44 -65.5t-16 -79.5z" />
    <glyph glyph-name="b" unicode="b" horiz-adv-x="596" 
d="M21 700h70v-280q28 45 88 75.5t117 30.5t107 -21.5t87.5 -59t59 -87.5t21.5 -107t-21.5 -107t-59 -87.5t-87.5 -59t-107 -21.5t-107 21.5t-87.5 59t-59 87.5t-21.5 107v449zM91 251q0 -42 16 -79.5t44 -65.5t65.5 -44t79.5 -16t79.5 16t65.5 44t44 65.5t16 79.5t-16 79.5
t-44 65.5t-65.5 44t-79.5 16t-79.5 -16t-65.5 -44t-44 -65.5t-16 -79.5z" />
    <glyph glyph-name="c" unicode="c" horiz-adv-x="579" 
d="M97 251q0 -42 16 -79.5t44 -65.5t65.5 -44t79.5 -16t79.5 16t65.5 44q20 20 34 46h77l-3 -8q-21 -50 -58.5 -87.5t-87.5 -59t-107 -21.5t-107 21.5t-87.5 59t-59 87.5t-21.5 107t21.5 107t59 87.5t87.5 59t107 21.5t107 -21.5t87.5 -59t58.5 -87.5l3 -7h-78
q-13 25 -33 45q-28 28 -65.5 44t-79.5 16t-79.5 -16t-65.5 -44t-44 -65.5t-16 -79.5z" />
    <glyph glyph-name="d" unicode="d" horiz-adv-x="596" 
d="M561 251q0 -57 -21.5 -107t-59 -87.5t-87.5 -59t-107 -21.5t-107 21.5t-87.5 59t-59 87.5t-21.5 107t21.5 107t59 87.5t87.5 59t107 21.5t117 -30.5t88 -75.5v280h70v-449zM491 251q0 42 -16 79.5t-44 65.5t-65.5 44t-79.5 16t-79.5 -16t-65.5 -44t-44 -65.5t-16 -79.5
t16 -79.5t44 -65.5t65.5 -44t79.5 -16t79.5 16t65.5 44t44 65.5t16 79.5z" />
    <glyph glyph-name="e" unicode="e" horiz-adv-x="598" 
d="M97 251q0 -42 16 -79.5t44 -65.5t65.5 -44t79.5 -16t79.5 16t65.5 44q20 20 34 46h77l-3 -8q-21 -50 -58.5 -87.5t-87.5 -59t-107 -21.5t-107 21.5t-87.5 59t-59 87.5t-21.5 107t21.5 107t59 87.5t87.5 59t107 21.5t107 -21.5t87.5 -59t58.5 -87.5q18 -41 21 -86h-478
q-1 -11 -1 -21zM447 396q-28 28 -65.5 44t-79.5 16t-79.5 -16t-65.5 -44q-24 -24 -39 -54h367q-15 30 -38 54z" />
    <glyph glyph-name="f" unicode="f" horiz-adv-x="317" 
d="M113 272v-272h-72v272h-51v70h51v224q0 28 10.5 52.5t28.5 42.5t42.5 28.5t52.5 10.5t52.5 -10.5t43 -28.5t29 -42.5t10.5 -52.5h-70q0 26 -19 44.5t-45 18.5t-44.5 -18.5t-18.5 -44.5v-224h129v-70h-129z" />
    <glyph glyph-name="g" unicode="g" horiz-adv-x="611" 
d="M506 500h70v-238v-210q0 -57 -21.5 -107t-59 -87.5t-87.5 -59t-107 -21.5t-107 21.5t-88 59.5q-20 20 -36 45l51 51q14 -26 35 -47q28 -28 65.5 -44t79.5 -16t79.5 16t65.5 44t44 65.5t16 79.5v15l-11 -11q-37 -37 -87 -58.5t-107 -21.5t-107 21.5t-87.5 59t-59 87.5
t-21.5 107t21.5 107t59 87.5t87.5 59t107 21.5t107 -21.5t87 -59.5q6 -5 11 -11v66zM96 251q0 -42 16 -79.5t44 -65.5t65.5 -44t79.5 -16t79.5 16t65.5 44t44 65.5t16 87.5q0 39 -14 72q-18 37 -46 65t-65.5 44t-79.5 16t-79.5 -16t-65.5 -44t-44 -65.5t-16 -79.5z" />
    <glyph glyph-name="h" unicode="h" horiz-adv-x="530" 
d="M40 700h72v-244q12 16 28.5 29t37 22t42.5 14t44 5q46 0 87 -18t71.5 -48.5t48.5 -71.5t18 -87v-1l1 -300h-72l-1 300v1q0 32 -12 60t-33 48.5t-49 32.5t-59 12q-30 0 -57.5 -13t-48 -34.5t-33 -49t-12.5 -57.5v-300h-73v700z" />
    <glyph glyph-name="i" unicode="i" horiz-adv-x="134" 
d="M32 500h70v-500h-70v500zM26 658q0 18 12 30t30 12t30 -12t12 -30t-12 -30t-30 -12t-30 12t-12 30z" />
    <glyph glyph-name="j" unicode="j" horiz-adv-x="150" 
d="M-84 -63q0 -26 18.5 -44.5t44.5 -18.5t45 18.5t19 44.5v563h70v-563q0 -28 -10.5 -52.5t-29 -42.5t-43 -28.5t-52.5 -10.5t-52.5 10.5t-42.5 28.5t-28.5 42.5t-10.5 52.5h72zM36 658q0 18 12 30t30 12t30 -12t12 -30t-12 -30t-30 -12t-30 12t-12 30z" />
    <glyph glyph-name="k" unicode="k" horiz-adv-x="393" 
d="M390 0h-90l-190 252l1 -252h-70l-1 700h70v-365l186 165h83l-215 -203z" />
    <glyph glyph-name="l" unicode="l" horiz-adv-x="148" 
d="M40 700h70v-700h-70v700z" />
    <glyph glyph-name="m" unicode="m" horiz-adv-x="904" 
d="M40 500h72v-45q24 32 65.5 51.5t86.5 19.5q59 0 106.5 -28.5t78.5 -75.5q30 47 81.5 75.5t111.5 28.5q46 0 87 -18t71.5 -48.5t48 -72t17.5 -87.5l1 -300h-72l-1 300q0 32 -12 60t-32.5 49t-48 33t-59.5 12t-59.5 -12t-48.5 -33t-33 -49t-12 -60l1 -300h-72l-1 300
q-2 33 -14.5 61.5t-33 49t-47.5 32t-58 11.5t-58.5 -13t-48.5 -34.5t-33 -49t-12 -57.5l1 -300h-72z" />
    <glyph glyph-name="n" unicode="n" horiz-adv-x="523" 
d="M416 300q0 32 -12 60t-33 49t-49 33t-59 12t-59 -13t-49 -34.5t-33.5 -49.5t-12.5 -57l1 -300h-71v500h70v-46q10 16 27 29.5t37.5 23t43.5 14.5t46 5q46 0 87 -18t71.5 -48.5t48.5 -72t18 -87.5l1 -300h-72z" />
    <glyph glyph-name="o" unicode="o" 
d="M27 251q0 57 21.5 107t59 87.5t87.5 59t107 21.5t107 -21.5t87.5 -59t59 -87.5t21.5 -107t-21.5 -107t-59 -87.5t-87.5 -59t-107 -21.5t-107 21.5t-87.5 59t-59 87.5t-21.5 107zM97 251q0 -42 16 -79.5t44 -65.5t65.5 -44t79.5 -16t79.5 16t65.5 44t44 65.5t16 79.5
t-16 79.5t-44 65.5t-65.5 44t-79.5 16t-79.5 -16t-65.5 -44t-44 -65.5t-16 -79.5z" />
    <glyph glyph-name="p" unicode="p" horiz-adv-x="617" 
d="M31 250q0 57 21.5 107t59 87.5t87.5 59t107 21.5t107 -21.5t87.5 -59t59 -87.5t21.5 -107t-21.5 -107t-59 -87.5t-87.5 -59t-107 -21.5t-117 30.5t-88 75.5v-280h-70v449zM101 250q0 -42 16 -79.5t44 -65.5t65.5 -44t79.5 -16t79.5 16t65.5 44t44 65.5t16 79.5t-16 79.5
t-44 65.5t-65.5 44t-79.5 16t-79.5 -16t-65.5 -44t-44 -65.5t-16 -79.5z" />
    <glyph glyph-name="q" unicode="q" horiz-adv-x="615" 
d="M581 -199h-70v280q-28 -45 -88 -75.5t-117 -30.5t-107 21.5t-87.5 59t-59 87.5t-21.5 107t21.5 107t59 87.5t87.5 59t107 21.5t107 -21.5t87.5 -59t59 -87.5t21.5 -107v-449zM511 250q0 42 -16 79.5t-44 65.5t-65.5 44t-79.5 16t-79.5 -16t-65.5 -44t-44 -65.5t-16 -79.5
t16 -79.5t44 -65.5t65.5 -44t79.5 -16t79.5 16t65.5 44t44 65.5t16 79.5z" />
    <glyph glyph-name="r" unicode="r" horiz-adv-x="343" 
d="M40 500h70v-95q5 10 11 16q38 38 88 59.5t107 21.5v-70q-42 0 -79.5 -16t-65.5 -44t-44 -65.5t-16 -79.5v-227h-70z" />
    <glyph glyph-name="s" unicode="s" horiz-adv-x="415" 
d="M316 125q1 34 -12.5 53t-39.5 31t-65 22t-72 24t-57 42t-29 70q-4 33 9 61t36.5 49.5t56.5 35t68 13.5q40 0 69.5 -13t49.5 -33.5t31.5 -41.5t13.5 -36h-75q-9 29 -34 44.5t-55 15.5q-20 0 -43 -8t-42.5 -32t-14.5 -51q5 -24 23.5 -37t49 -24t67.5 -23t69.5 -32.5
t50.5 -51.5t18 -78q0 -35 -14.5 -63t-39 -47t-57 -29t-67.5 -10t-69 12.5t-60 35t-41.5 54t-14.5 74.5h71q0 -26 10.5 -48.5t38 -41t70.5 -17.5q49 0 73.5 23.5t26.5 56.5z" />
    <glyph glyph-name="t" unicode="t" horiz-adv-x="289" 
d="M18 430v70h51v200h70v-200h131v-70h-131v-430h-70v430h-51z" />
    <glyph glyph-name="u" unicode="u" horiz-adv-x="518" 
d="M414 225v275h70v-275q0 -46 -17.5 -87t-48 -71.5t-71.5 -48.5t-87 -18t-87 18t-71.5 48.5t-48.5 71.5t-18 87v1l-1 274h72l1 -274v-1q0 -32 12 -60t33 -48.5t48.5 -32.5t59.5 -12t60 12t49 32.5t33 48.5t12 60z" />
    <glyph glyph-name="v" unicode="v" horiz-adv-x="545" 
d="M16 500h77l179 -412l180 412h77l-218 -500h-77z" />
    <glyph glyph-name="w" unicode="w" horiz-adv-x="900" 
d="M791 500h72v-298q0 -47 -17.5 -88t-48.5 -71.5t-72 -48.5t-87 -18q-60 0 -109.5 28t-79.5 76q-31 -48 -80.5 -76t-108.5 -28q-47 0 -87.5 18t-70.5 48.5t-47.5 71.5t-17.5 88v298h70v-298q0 -32 12 -60t32.5 -49t48.5 -33t60 -12q31 0 59 12t49 33t33.5 49t12.5 60v298
h72v-298q1 -34 13.5 -62t33 -48.5t47.5 -32t58 -11.5q32 0 60 12t48.5 33t32.5 49t12 60v298z" />
    <glyph glyph-name="x" unicode="x" horiz-adv-x="411" 
d="M113 0h-80l132 250l-132 250h81l92 -173l92 173h81l-133 -250l133 -250h-80l-93 174z" />
    <glyph glyph-name="y" unicode="y" horiz-adv-x="524" 
d="M414 225v275h70v-275q0 -46 -17.5 -87t-48 -71.5t-71.5 -48.5q-25 -11 -52 -16l1 -226h-71l-1 226q-27 5 -51 16q-41 18 -71.5 48.5t-48.5 71.5t-18 87v1l-1 274h72l1 -274v-1q0 -32 12 -60t33 -48.5t48.5 -32.5t59.5 -12t60 12t49 32.5t33 48.5t12 60z" />
    <glyph glyph-name="z" unicode="z" horiz-adv-x="411" 
d="M33 0l228 430h-228v70h346l-229 -430h229v-70h-346z" />
    <glyph glyph-name="braceleft" unicode="{" horiz-adv-x="256" 
d="M155 -70q0 -16 6.5 -30t17.5 -24t25 -16t30 -6v-71q-30 0 -57.5 11.5t-47.5 31t-32 46.5t-12 58v263q0 31 -21.5 52.5t-51.5 23.5h-6v71q16 0 30 6t25 16t17.5 24t6.5 30v261q0 31 12 58t32 46.5t47.5 31t57.5 11.5v-71q-16 0 -30 -6t-25 -16t-17.5 -24t-6.5 -30v-261
q0 -35 -14.5 -63.5t-37.5 -48.5q23 -20 37.5 -48.5t14.5 -62.5v-263z" />
    <glyph glyph-name="bar" unicode="|" horiz-adv-x="148" 
d="M40 824h70v-1039h-70v1039z" />
    <glyph glyph-name="braceright" unicode="}" horiz-adv-x="257" 
d="M102 193q0 34 14.5 62.5t37.5 48.5q-23 20 -37.5 48.5t-14.5 63.5v261q0 16 -6.5 30t-17.5 24t-25 16t-30 6v71q30 0 57.5 -11.5t47.5 -31t32 -46.5t12 -58v-261q0 -16 6.5 -30t17.5 -24t25 -16t30 -6v-71h-6q-30 -2 -51.5 -23.5t-21.5 -52.5v-263q0 -31 -12 -58
t-32 -46.5t-47.5 -31t-57.5 -11.5v71q16 0 30 6t25 16t17.5 24t6.5 30v263z" />
    <glyph glyph-name="asciitilde" unicode="~" horiz-adv-x="498" 
d="M27 435h72v-49q0 -26 18.5 -44.5t44.5 -18.5q22 0 39 14.5t35 31.5t41.5 31.5t58.5 14.5q28 0 52.5 -10.5t42.5 -28.5t28.5 -42.5t10.5 -52.5v-49h-72v49q0 26 -18.5 44.5t-44.5 18.5q-22 0 -39 -14l-34 -32q-18 -17 -41.5 -31.5t-59.5 -14.5q-28 0 -52.5 10.5
t-42.5 28.5t-28.5 42.5t-10.5 52.5v49z" />
    <glyph glyph-name="cent" unicode="&#xa2;" horiz-adv-x="553" 
d="M252 670h70v-146q38 -5 74 -20q50 -21 87.5 -58.5t58.5 -87.5l3 -7h-78q-13 25 -33 45q-28 28 -66 44q-22 9 -46 13v-405q24 4 46 14q38 16 66 44q20 20 34 46h77l-3 -8q-21 -50 -58.5 -87.5t-87.5 -58.5q-36 -15 -74 -20v-147h-70v147q-37 5 -70 20q-50 21 -87.5 58.5
t-59 87.5t-21.5 107t21.5 107t59 87.5t87.5 58.5q33 15 70 19v147zM84 251q0 -42 16 -79.5t44 -65.5t65 -44q21 -9 43 -13v404q-22 -4 -43 -13q-37 -16 -65 -44t-44 -65.5t-16 -79.5z" />
    <glyph glyph-name="sterling" unicode="&#xa3;" horiz-adv-x="363" 
d="M72 296h-51v70h51v224q0 28 10.5 52.5t28.5 42.5t42.5 28.5t52.5 10.5t52.5 -10.5t43 -28.5t29 -42.5t10.5 -52.5h-70q0 26 -19 44.5t-45 18.5t-44.5 -18.5t-18.5 -44.5v-224h129v-70h-129v-226h196v-70h-268v296z" />
    <glyph glyph-name="yen" unicode="&#xa5;" horiz-adv-x="557" 
d="M518 344v-70h-202v-72h202v-70h-202v-132h-75v132h-199v70h199v71l-1 1h-198v70h162l-187 356h73l187 -356h1l188 356h73l-187 -356h166z" />
    <glyph glyph-name="dieresis" unicode="&#xa8;" horiz-adv-x="316" 
d="M36 785q0 18 12 30t30 12t30 -12t12 -30t-12 -30t-30 -12t-30 12t-12 30zM196 785q0 18 12 30t30 12t30 -12t12 -30t-12 -30t-30 -12t-30 12t-12 30z" />
    <glyph glyph-name="copyright" unicode="&#xa9;" horiz-adv-x="803" 
d="M226 350q0 -36 14 -68.5t39 -58t57.5 -40t68.5 -14.5q38 0 71 14.5t57 40.5q16 16 29 39h67l-1 -6q-18 -44 -52 -78t-77 -52t-94 -18q-50 0 -93 18t-76.5 52t-52.5 77.5t-19 93.5t19 93.5t52.5 77.5t76.5 52t93 18q51 0 94 -18t77 -52t52 -78l1 -6h-67q-13 23 -29 39
q-24 26 -57 40.5t-71 14.5q-36 0 -68.5 -14.5t-57.5 -40t-39 -58t-14 -68.5zM28 350q0 77 29.5 145t80.5 119t119 80.5t145 29.5t145 -29.5t119 -80.5t80.5 -119t29.5 -145t-29.5 -145t-80.5 -119t-119 -80.5t-145 -29.5t-145 29.5t-119 80.5t-80.5 119t-29.5 145zM98 350
q0 -62 24 -117.5t65.5 -97t97 -65.5t117.5 -24t117 24t96.5 65.5t65.5 97t24 117.5t-24 117t-65.5 96.5t-96.5 65.5t-117 24t-117.5 -24t-97 -65.5t-65.5 -96.5t-24 -117z" />
    <glyph glyph-name="guillemotleft" unicode="&#xab;" horiz-adv-x="535" 
d="M451 498l49 -50l-199 -199l199 -199l-49 -50l-249 249zM261 498l49 -50l-199 -199l199 -199l-49 -50l-249 249z" />
    <glyph glyph-name="registered" unicode="&#xae;" horiz-adv-x="803" 
d="M28 350q0 77 29.5 145t80.5 119t119 80.5t145 29.5t145 -29.5t119 -80.5t80.5 -119t29.5 -145t-29.5 -145t-80.5 -119t-119 -80.5t-145 -29.5t-145 29.5t-119 80.5t-80.5 119t-29.5 145zM98 350q0 -62 24 -117.5t65.5 -97t97 -65.5t117.5 -24t117 24t96.5 65.5t65.5 97
t24 117.5t-24 117t-65.5 96.5t-96.5 65.5t-117 24t-117.5 -24t-97 -65.5t-65.5 -96.5t-24 -117zM269 602h129q95 0 136.5 -42.5t41.5 -98.5t-31 -81t-53 -27q19 0 51 -26t32 -85v-120h-70v113q0 51 -32 68.5t-64 17.5h-70v-199h-70v480zM505 465q0 29 -22.5 51.5t-83.5 22.5
h-60v-152h60q54 0 79.5 15t26.5 57v6z" />
    <glyph glyph-name="plusminus" unicode="&#xb1;" horiz-adv-x="378" 
d="M360 342v-70h-137v-137h-70v137h-134v70h134v134h70v-134h137zM360 70v-70h-341v70h341z" />
    <glyph glyph-name="acute" unicode="&#xb4;" horiz-adv-x="161" 
d="M93 573h-74l51 127h74z" />
    <glyph glyph-name="mu" unicode="&#xb5;" horiz-adv-x="528" 
d="M420 225v275h70v-275q0 -46 -17.5 -87t-48 -71.5t-71.5 -48.5t-87 -18q-45 0 -84 16t-69 45v-259h-73v698h72v-275q0 -32 12 -60t33 -48.5t49 -32.5t60 -12t60 12t49 32.5t33 48.5t12 60z" />
    <glyph glyph-name="mu" unicode="&#x3bc;" horiz-adv-x="528" 
d="M420 225v275h70v-275q0 -46 -17.5 -87t-48 -71.5t-71.5 -48.5t-87 -18q-45 0 -84 16t-69 45v-259h-73v698h72v-275q0 -32 12 -60t33 -48.5t49 -32.5t60 -12t60 12t49 32.5t33 48.5t12 60z" />
    <glyph glyph-name="periodcentered" unicode="&#xb7;" horiz-adv-x="141" 
d="M29 315q0 18 12 30t30 12t30 -12t12 -30t-12 -30t-30 -12t-30 12t-12 30z" />
    <glyph glyph-name="cedilla" unicode="&#xb8;" horiz-adv-x="230" 
d="M40 -194h70q14 0 24 10t10 24t-10 24.5t-24 10.5h-70v125h70v-55q21 0 40.5 -8.5t33.5 -22.5t22.5 -33t8.5 -41t-8.5 -41t-22.5 -33t-33.5 -22t-40.5 -8h-70v70z" />
    <glyph glyph-name="guillemotright" unicode="&#xbb;" horiz-adv-x="535" 
d="M333 249l-249 -249l-49 50l199 199l-199 199l49 50zM523 249l-249 -249l-49 50l199 199l-199 199l49 50z" />
    <glyph glyph-name="questiondown" unicode="&#xbf;" horiz-adv-x="496" 
d="M222 658q0 18 12 30t30 12t30 -12t12 -30t-12 -30t-30 -12t-30 12t-12 30zM300 427h-38q-37 0 -70 -14t-57.5 -38.5t-38.5 -57.5t-14 -70t14 -70t38.5 -57.5t57.5 -38.5t70 -14q50 0 89 19t63 58h74q-28 -68 -88 -106t-138 -38q-51 0 -96 19.5t-78.5 53t-53 78.5
t-19.5 96q0 47 16.5 89t45.5 74.5t68.5 53.5t84.5 27v78h70v-142z" />
    <glyph glyph-name="Agrave" unicode="&#xc0;" horiz-adv-x="557" 
d="M538 0h-73l-88 272h-201l-87 -272h-73l224 700h74zM199 342h156l-78 243zM188 895h74l51 -127h-74z" />
    <glyph glyph-name="Aacute" unicode="&#xc1;" horiz-adv-x="557" 
d="M369 896h-74l-51 -127h74zM538 0h-73l-88 272h-201l-87 -272h-73l224 700h74zM199 342h156l-78 243z" />
    <glyph glyph-name="Acircumflex" unicode="&#xc2;" horiz-adv-x="557" 
d="M538 0h-73l-88 272h-201l-87 -272h-73l224 700h74zM199 342h156l-78 243zM322 875l92 -130h-76l-60 84l-61 -84h-75l91 130h89z" />
    <glyph glyph-name="Atilde" unicode="&#xc3;" horiz-adv-x="557" 
d="M538 0h-73l-88 272h-201l-87 -272h-73l224 700h74zM199 342h156l-78 243zM346 847l62 -37q-24 -41 -66 -52.5t-83 12.5q-15 10 -28 5t-22 -21l-62 37q24 41 66 52.5t83 -11.5q15 -9 28 -4.5t22 19.5z" />
    <glyph glyph-name="Adieresis" unicode="&#xc4;" horiz-adv-x="557" 
d="M538 0h-73l-88 272h-201l-87 -272h-73l224 700h74zM199 342h156l-78 243zM155 838q0 18 12 30t30 12t30 -12t12 -30t-12 -30t-30 -12t-30 12t-12 30zM315 838q0 18 12 30t30 12t30 -12t12 -30t-12 -30t-30 -12t-30 12t-12 30z" />
    <glyph glyph-name="AE" unicode="&#xc6;" horiz-adv-x="769" 
d="M748 700v-70h-396v-288h326v-70h-326v-202h396v-70h-466v272h-101l-87 -272h-73l224 700h503zM204 342h78v243z" />
    <glyph glyph-name="Ccedilla" unicode="&#xc7;" horiz-adv-x="770" 
d="M98 350q0 -62 24 -117.5t65.5 -97t97 -65.5t117.5 -24t117 24t96 65q18 18 33 39h83q-26 -49 -65 -88q-51 -51 -119 -80.5t-145 -29.5t-145 29.5t-119 80.5t-80.5 119t-29.5 145t29.5 145t80.5 119t119 80.5t145 29.5t145 -29.5t119 -80.5q39 -39 65 -88h-84
q-14 20 -32 37q-41 42 -96 66t-117 24t-117.5 -24t-97 -65.5t-65.5 -96.5t-24 -117zM355 -194h70q14 0 24 10t10 24t-10 24.5t-24 10.5h-70v125h70v-55q21 0 40.5 -8.5t33.5 -22.5t22.5 -33t8.5 -41t-8.5 -41t-22.5 -33t-33.5 -22t-40.5 -8h-70v70z" />
    <glyph glyph-name="Egrave" unicode="&#xc8;" horiz-adv-x="539" 
d="M40 700h466v-70h-396v-288h326v-70h-326v-202h396v-70h-466v700zM196 896h74l51 -127h-74z" />
    <glyph glyph-name="Eacute" unicode="&#xc9;" horiz-adv-x="533" 
d="M40 700h466v-70h-396v-288h326v-70h-326v-202h396v-70h-466v700zM372 896h-74l-51 -127h74z" />
    <glyph glyph-name="Ecircumflex" unicode="&#xca;" horiz-adv-x="533" 
d="M40 700h466v-70h-396v-288h326v-70h-326v-202h396v-70h-466v700zM326 899l92 -130h-76l-60 84l-61 -84h-75l91 130h89z" />
    <glyph glyph-name="Edieresis" unicode="&#xcb;" horiz-adv-x="541" 
d="M40 700h466v-70h-396v-288h326v-70h-326v-202h396v-70h-466v700zM155 839q0 18 12 30t30 12t30 -12t12 -30t-12 -30t-30 -12t-30 12t-12 30zM315 839q0 18 12 30t30 12t30 -12t12 -30t-12 -30t-30 -12t-30 12t-12 30z" />
    <glyph glyph-name="Igrave" unicode="&#xcc;" horiz-adv-x="157" 
d="M44 700h70v-700h-70v700zM-7 896h74l51 -127h-74z" />
    <glyph glyph-name="Iacute" unicode="&#xcd;" horiz-adv-x="153" 
d="M42 700h70v-700h-70v700zM168 896h-74l-51 -127h74z" />
    <glyph glyph-name="Icircumflex" unicode="&#xce;" horiz-adv-x="150" 
d="M40 700h70v-700h-70v700zM123 899l92 -130h-76l-60 84l-61 -84h-75l91 130h89z" />
    <glyph glyph-name="Idieresis" unicode="&#xcf;" horiz-adv-x="152" 
d="M40 700h70v-700h-70v700zM-45 839q0 18 12 30t30 12t30 -12t12 -30t-12 -30t-30 -12t-30 12t-12 30zM115 839q0 18 12 30t30 12t30 -12t12 -30t-12 -30t-30 -12t-30 12t-12 30z" />
    <glyph glyph-name="Eth" unicode="&#xd0;" horiz-adv-x="672" 
d="M61 700h235q72 0 136 -27.5t111 -74.5t74.5 -111t27.5 -136t-27.5 -136t-74.5 -112t-111 -75.5t-136 -27.5h-235v315h-99v70h99v315zM303 385v-70h-172v-245h165q58 0 108.5 22t88.5 60.5t60 89.5t22 109t-22 108.5t-60 88.5t-88.5 60t-108.5 22h-165v-245h172z" />
    <glyph glyph-name="Ntilde" unicode="&#xd1;" horiz-adv-x="546" 
d="M436 700h70v-700h-70l-326 560v-560h-70v700h70l326 -560v560zM338 848l62 -37q-24 -41 -66 -52.5t-83 12.5q-15 10 -28 5t-22 -21l-62 37q24 41 66 52.5t83 -11.5q15 -9 28 -4.5t22 19.5z" />
    <glyph glyph-name="Ograve" unicode="&#xd2;" horiz-adv-x="806" 
d="M28 350q0 77 29.5 145t80.5 119t119 80.5t145 29.5t145 -29.5t119 -80.5t80.5 -119t29.5 -145t-29.5 -145t-80.5 -119t-119 -80.5t-145 -29.5t-145 29.5t-119 80.5t-80.5 119t-29.5 145zM98 350q0 -62 24 -117.5t65.5 -97t97 -65.5t117.5 -24t117 24t96.5 65.5t65.5 97
t24 117.5t-24 117t-65.5 96.5t-96.5 65.5t-117 24t-117.5 -24t-97 -65.5t-65.5 -96.5t-24 -117zM307 896h74l51 -127h-74z" />
    <glyph glyph-name="Oacute" unicode="&#xd3;" horiz-adv-x="815" 
d="M28 350q0 77 29.5 145t80.5 119t119 80.5t145 29.5t145 -29.5t119 -80.5t80.5 -119t29.5 -145t-29.5 -145t-80.5 -119t-119 -80.5t-145 -29.5t-145 29.5t-119 80.5t-80.5 119t-29.5 145zM98 350q0 -62 24 -117.5t65.5 -97t97 -65.5t117.5 -24t117 24t96.5 65.5t65.5 97
t24 117.5t-24 117t-65.5 96.5t-96.5 65.5t-117 24t-117.5 -24t-97 -65.5t-65.5 -96.5t-24 -117zM492 896h-74l-51 -127h74z" />
    <glyph glyph-name="Ocircumflex" unicode="&#xd4;" horiz-adv-x="798" 
d="M24 350q0 77 29.5 145t80.5 119t119 80.5t145 29.5t145 -29.5t119 -80.5t80.5 -119t29.5 -145t-29.5 -145t-80.5 -119t-119 -80.5t-145 -29.5t-145 29.5t-119 80.5t-80.5 119t-29.5 145zM94 350q0 -62 24 -117.5t65.5 -97t97 -65.5t117.5 -24t117 24t96.5 65.5t65.5 97
t24 117.5t-24 117t-65.5 96.5t-96.5 65.5t-117 24t-117.5 -24t-97 -65.5t-65.5 -96.5t-24 -117zM438 899l92 -130h-76l-60 84l-61 -84h-75l91 130h89z" />
    <glyph glyph-name="Otilde" unicode="&#xd5;" horiz-adv-x="809" 
d="M28 350q0 77 29.5 145t80.5 119t119 80.5t145 29.5t145 -29.5t119 -80.5t80.5 -119t29.5 -145t-29.5 -145t-80.5 -119t-119 -80.5t-145 -29.5t-145 29.5t-119 80.5t-80.5 119t-29.5 145zM98 350q0 -62 24 -117.5t65.5 -97t97 -65.5t117.5 -24t117 24t96.5 65.5t65.5 97
t24 117.5t-24 117t-65.5 96.5t-96.5 65.5t-117 24t-117.5 -24t-97 -65.5t-65.5 -96.5t-24 -117zM472 871l62 -37q-24 -41 -66 -52.5t-83 12.5q-15 10 -28 5t-22 -21l-62 37q24 41 66 52.5t83 -11.5q15 -9 28 -4.5t22 19.5z" />
    <glyph glyph-name="Odieresis" unicode="&#xd6;" horiz-adv-x="803" 
d="M28 350q0 77 29.5 145t80.5 119t119 80.5t145 29.5t145 -29.5t119 -80.5t80.5 -119t29.5 -145t-29.5 -145t-80.5 -119t-119 -80.5t-145 -29.5t-145 29.5t-119 80.5t-80.5 119t-29.5 145zM98 350q0 -62 24 -117.5t65.5 -97t97 -65.5t117.5 -24t117 24t96.5 65.5t65.5 97
t24 117.5t-24 117t-65.5 96.5t-96.5 65.5t-117 24t-117.5 -24t-97 -65.5t-65.5 -96.5t-24 -117zM279 838q0 18 12 30t30 12t30 -12t12 -30t-12 -30t-30 -12t-30 12t-12 30zM439 838q0 18 12 30t30 12t30 -12t12 -30t-12 -30t-30 -12t-30 12t-12 30z" />
    <glyph glyph-name="multiply" unicode="&#xd7;" horiz-adv-x="353" 
d="M323 182l-49 -50l-97 97l-97 -97l-50 50l97 97l-95 94l50 50l95 -95l94 95l50 -50l-95 -94z" />
    <glyph glyph-name="Oslash" unicode="&#xd8;" horiz-adv-x="790" 
d="M21 350q0 77 29.5 145t80.5 119t119 80.5t145 29.5q42 0 81 -9l31 95h74l-38 -117q66 -29 116 -79q51 -51 80.5 -119t29.5 -145t-29.5 -145t-80.5 -119t-119 -80.5t-145 -29.5q-43 0 -82 9l-30 -92h-74l37 114q-66 29 -115 79q-51 51 -80.5 119t-29.5 145zM395 46
q62 0 117 24t96.5 65.5t65.5 97t24 117.5t-24 117t-66 96q-38 38 -87 62l-186 -573q29 -6 60 -6zM91 350q0 -62 24 -117.5t65 -97.5q38 -38 88 -61l186 573q-29 6 -59 6q-62 0 -117.5 -24t-97 -65.5t-65.5 -96.5t-24 -117z" />
    <glyph glyph-name="Ugrave" unicode="&#xd9;" horiz-adv-x="541" 
d="M106 209q0 -34 12.5 -64t34.5 -52t52 -34.5t64 -12.5t64 12.5t52 34.5t34.5 52t12.5 64v491h70v-491q0 -49 -18 -91.5t-49.5 -74t-74 -49.5t-91.5 -18t-91.5 18t-74 49.5t-49.5 74t-18 91.5v491h70v-491zM185 896h74l51 -127h-74z" />
    <glyph glyph-name="Uacute" unicode="&#xda;" horiz-adv-x="541" 
d="M106 209q0 -34 12.5 -64t34.5 -52t52 -34.5t64 -12.5t64 12.5t52 34.5t34.5 52t12.5 64v491h70v-491q0 -49 -18 -91.5t-49.5 -74t-74 -49.5t-91.5 -18t-91.5 18t-74 49.5t-49.5 74t-18 91.5v491h70v-491zM358 896h-74l-51 -127h74z" />
    <glyph glyph-name="Ucircumflex" unicode="&#xdb;" horiz-adv-x="541" 
d="M106 209q0 -34 12.5 -64t34.5 -52t52 -34.5t64 -12.5t64 12.5t52 34.5t34.5 52t12.5 64v491h70v-491q0 -49 -18 -91.5t-49.5 -74t-74 -49.5t-91.5 -18t-91.5 18t-74 49.5t-49.5 74t-18 91.5v491h70v-491zM313 899l92 -130h-76l-60 84l-61 -84h-75l91 130h89z" />
    <glyph glyph-name="Udieresis" unicode="&#xdc;" horiz-adv-x="538" 
d="M106 209q0 -34 12.5 -64t34.5 -52t52 -34.5t64 -12.5t64 12.5t52 34.5t34.5 52t12.5 64v491h70v-491q0 -49 -18 -91.5t-49.5 -74t-74 -49.5t-91.5 -18t-91.5 18t-74 49.5t-49.5 74t-18 91.5v491h70v-491zM153 811q0 18 12 30t30 12t30 -12t12 -30t-12 -30t-30 -12t-30 12
t-12 30zM313 811q0 18 12 30t30 12t30 -12t12 -30t-12 -30t-30 -12t-30 12t-12 30z" />
    <glyph glyph-name="Yacute" unicode="&#xdd;" horiz-adv-x="559" 
d="M13 700h77l184 -357l184 357h77l-223 -425v-275h-75v273zM310 769h-74l51 127h74z" />
    <glyph glyph-name="Thorn" unicode="&#xde;" horiz-adv-x="407" 
d="M40 700h70v-200h38q108 0 170 -50q60 -51 60 -139q0 -45 -15.5 -79t-44.5 -60q-62 -49 -170 -49h-38v-123h-70v700zM263 223q40 32 40 88q0 55 -40 89q-43 32 -113 32h-40v-241h40q70 0 113 32z" />
    <glyph glyph-name="germandbls" unicode="&#xdf;" horiz-adv-x="481" 
d="M337 104q43 36 43 92q0 60 -43 94q-39 33 -117 33h-32v68h22q46 0 83 32q40 32 40 88q0 55 -40 89q-43 32 -113 32h-70v-632h-70v700h138q108 0 170 -50q60 -51 60 -139q0 -45 -15.5 -79t-44.5 -60q-2 -2 -4 -3q28 -11 50 -28q31 -29 47 -63.5t16 -82.5q0 -89 -63 -144
q-65 -51 -175 -51h-31v71h32q78 0 117 33z" />
    <glyph glyph-name="agrave" unicode="&#xe0;" horiz-adv-x="619" 
d="M27 251q0 57 21.5 107t59 87.5t87.5 59t107 21.5t107 -21.5t87.5 -59t59 -87.5t21.5 -107v-251h-70v67l-11 -11q-37 -37 -87 -58.5t-107 -21.5t-107 21.5t-87.5 59t-59 87.5t-21.5 107zM97 251q0 -42 16 -79.5t44 -65.5t65.5 -44t79.5 -16t79.5 16t65.5 44t44 65
q14 34 16 71v9q0 42 -16 79.5t-44 65.5t-65.5 44t-79.5 16t-79.5 -16t-65.5 -44t-44 -65.5t-16 -79.5zM213 699h74l51 -127h-74z" />
    <glyph glyph-name="aacute" unicode="&#xe1;" horiz-adv-x="615" 
d="M27 251q0 57 21.5 107t59 87.5t87.5 59t107 21.5t107 -21.5t87.5 -59t59 -87.5t21.5 -107v-251h-70v67l-11 -11q-37 -37 -87 -58.5t-107 -21.5t-107 21.5t-87.5 59t-59 87.5t-21.5 107zM97 251q0 -42 16 -79.5t44 -65.5t65.5 -44t79.5 -16t79.5 16t65.5 44t44 65
q14 34 16 71v9q0 42 -16 79.5t-44 65.5t-65.5 44t-79.5 16t-79.5 -16t-65.5 -44t-44 -65.5t-16 -79.5zM390 699h-74l-51 -127h74z" />
    <glyph glyph-name="acircumflex" unicode="&#xe2;" horiz-adv-x="617" 
d="M27 251q0 57 21.5 107t59 87.5t87.5 59t107 21.5t107 -21.5t87.5 -59t59 -87.5t21.5 -107v-251h-70v67l-11 -11q-37 -37 -87 -58.5t-107 -21.5t-107 21.5t-87.5 59t-59 87.5t-21.5 107zM97 251q0 -42 16 -79.5t44 -65.5t65.5 -44t79.5 -16t79.5 16t65.5 44t44 65
q14 34 16 71v9q0 42 -16 79.5t-44 65.5t-65.5 44t-79.5 16t-79.5 -16t-65.5 -44t-44 -65.5t-16 -79.5zM350 700l92 -130h-76l-60 84l-61 -84h-75l91 130h89z" />
    <glyph glyph-name="atilde" unicode="&#xe3;" horiz-adv-x="619" 
d="M27 251q0 57 21.5 107t59 87.5t87.5 59t107 21.5t107 -21.5t87.5 -59t59 -87.5t21.5 -107v-251h-70v67l-11 -11q-37 -37 -87 -58.5t-107 -21.5t-107 21.5t-87.5 59t-59 87.5t-21.5 107zM97 251q0 -42 16 -79.5t44 -65.5t65.5 -44t79.5 -16t79.5 16t65.5 44t44 65
q14 34 16 71v9q0 42 -16 79.5t-44 65.5t-65.5 44t-79.5 16t-79.5 -16t-65.5 -44t-44 -65.5t-16 -79.5zM363 649l62 -37q-24 -41 -66 -52.5t-83 12.5q-15 10 -28 5t-22 -21l-62 37q24 41 66 52.5t83 -11.5q15 -9 28 -4.5t22 19.5z" />
    <glyph glyph-name="adieresis" unicode="&#xe4;" horiz-adv-x="620" 
d="M27 251q0 57 21.5 107t59 87.5t87.5 59t107 21.5t107 -21.5t87.5 -59t59 -87.5t21.5 -107v-251h-70v67l-11 -11q-37 -37 -87 -58.5t-107 -21.5t-107 21.5t-87.5 59t-59 87.5t-21.5 107zM97 251q0 -42 16 -79.5t44 -65.5t65.5 -44t79.5 -16t79.5 16t65.5 44t44 65
q14 34 16 71v9q0 42 -16 79.5t-44 65.5t-65.5 44t-79.5 16t-79.5 -16t-65.5 -44t-44 -65.5t-16 -79.5zM183 636q0 18 12 30t30 12t30 -12t12 -30t-12 -30t-30 -12t-30 12t-12 30zM343 636q0 18 12 30t30 12t30 -12t12 -30t-12 -30t-30 -12t-30 12t-12 30z" />
    <glyph glyph-name="ae" unicode="&#xe6;" horiz-adv-x="1099" 
d="M42 251q0 57 21.5 107t59 87.5t87.5 59t107 21.5t107 -21.5t87.5 -59t59 -87.5t21.5 -107v-251h-70v67l-11 -11q-37 -37 -87 -58.5t-107 -21.5t-107 21.5t-87.5 59t-59 87.5t-21.5 107zM112 251q0 -42 16 -79.5t44 -65.5t65.5 -44t79.5 -16t79.5 16t65.5 44t44 65
q14 34 16 71v9q0 42 -16 79.5t-44 65.5t-65.5 44t-79.5 16t-79.5 -16t-65.5 -44t-44 -65.5t-16 -79.5zM592 251q0 -42 16 -79.5t44 -65.5t65.5 -44t79.5 -16t79.5 16t65.5 44q20 20 34 46h77l-3 -8q-21 -50 -58.5 -87.5t-87.5 -59t-107 -21.5t-107 21.5t-87.5 59t-59 87.5
t-21.5 107t21.5 107t59 87.5t87.5 59t107 21.5t107 -21.5t87.5 -59t58.5 -87.5q18 -41 21 -86h-478q-1 -11 -1 -21zM942 396q-28 28 -65.5 44t-79.5 16t-79.5 -16t-65.5 -44q-24 -24 -39 -54h367q-15 30 -38 54z" />
    <glyph glyph-name="ccedilla" unicode="&#xe7;" horiz-adv-x="583" 
d="M97 251q0 -42 16 -79.5t44 -65.5t65.5 -44t79.5 -16t79.5 16t65.5 44q20 20 34 46h77l-3 -8q-21 -50 -58.5 -87.5t-87.5 -59t-107 -21.5t-107 21.5t-87.5 59t-59 87.5t-21.5 107t21.5 107t59 87.5t87.5 59t107 21.5t107 -21.5t87.5 -59t58.5 -87.5l3 -7h-78
q-13 25 -33 45q-28 28 -65.5 44t-79.5 16t-79.5 -16t-65.5 -44t-44 -65.5t-16 -79.5zM256 -194h70q14 0 24 10t10 24t-10 24.5t-24 10.5h-70v125h70v-55q21 0 40.5 -8.5t33.5 -22.5t22.5 -33t8.5 -41t-8.5 -41t-22.5 -33t-33.5 -22t-40.5 -8h-70v70z" />
    <glyph glyph-name="egrave" unicode="&#xe8;" 
d="M97 251q0 -42 16 -79.5t44 -65.5t65.5 -44t79.5 -16t79.5 16t65.5 44q20 20 34 46h77l-3 -8q-21 -50 -58.5 -87.5t-87.5 -59t-107 -21.5t-107 21.5t-87.5 59t-59 87.5t-21.5 107t21.5 107t59 87.5t87.5 59t107 21.5t107 -21.5t87.5 -59t58.5 -87.5q18 -41 21 -86h-478
q-1 -11 -1 -21zM447 396q-28 28 -65.5 44t-79.5 16t-79.5 -16t-65.5 -44q-24 -24 -39 -54h367q-15 30 -38 54zM212 699h74l51 -127h-74z" />
    <glyph glyph-name="eacute" unicode="&#xe9;" 
d="M97 251q0 -42 16 -79.5t44 -65.5t65.5 -44t79.5 -16t79.5 16t65.5 44q20 20 34 46h77l-3 -8q-21 -50 -58.5 -87.5t-87.5 -59t-107 -21.5t-107 21.5t-87.5 59t-59 87.5t-21.5 107t21.5 107t59 87.5t87.5 59t107 21.5t107 -21.5t87.5 -59t58.5 -87.5q18 -41 21 -86h-478
q-1 -11 -1 -21zM447 396q-28 28 -65.5 44t-79.5 16t-79.5 -16t-65.5 -44q-24 -24 -39 -54h367q-15 30 -38 54zM380 699h-74l-51 -127h74z" />
    <glyph glyph-name="ecircumflex" unicode="&#xea;" 
d="M97 251q0 -42 16 -79.5t44 -65.5t65.5 -44t79.5 -16t79.5 16t65.5 44q20 20 34 46h77l-3 -8q-21 -50 -58.5 -87.5t-87.5 -59t-107 -21.5t-107 21.5t-87.5 59t-59 87.5t-21.5 107t21.5 107t59 87.5t87.5 59t107 21.5t107 -21.5t87.5 -59t58.5 -87.5q18 -41 21 -86h-478
q-1 -11 -1 -21zM447 396q-28 28 -65.5 44t-79.5 16t-79.5 -16t-65.5 -44q-24 -24 -39 -54h367q-15 30 -38 54zM347 701l92 -130h-76l-60 84l-61 -84h-75l91 130h89z" />
    <glyph glyph-name="edieresis" unicode="&#xeb;" 
d="M97 251q0 -42 16 -79.5t44 -65.5t65.5 -44t79.5 -16t79.5 16t65.5 44q20 20 34 46h77l-3 -8q-21 -50 -58.5 -87.5t-87.5 -59t-107 -21.5t-107 21.5t-87.5 59t-59 87.5t-21.5 107t21.5 107t59 87.5t87.5 59t107 21.5t107 -21.5t87.5 -59t58.5 -87.5q18 -41 21 -86h-478
q-1 -11 -1 -21zM447 396q-28 28 -65.5 44t-79.5 16t-79.5 -16t-65.5 -44q-24 -24 -39 -54h367q-15 30 -38 54zM178 635q0 18 12 30t30 12t30 -12t12 -30t-12 -30t-30 -12t-30 12t-12 30zM338 635q0 18 12 30t30 12t30 -12t12 -30t-12 -30t-30 -12t-30 12t-12 30z" />
    <glyph glyph-name="igrave" unicode="&#xec;" horiz-adv-x="141" 
d="M39 499h70v-499h-70v499zM-15 697h74l51 -127h-74z" />
    <glyph glyph-name="iacute" unicode="&#xed;" horiz-adv-x="144" 
d="M33 499h70v-499h-70v499zM107 570h-74l51 127h74z" />
    <glyph glyph-name="icircumflex" unicode="&#xee;" horiz-adv-x="152" 
d="M40 500h70v-500h-70v500zM121 700l92 -130h-76l-60 84l-61 -84h-75l91 130h89z" />
    <glyph glyph-name="idieresis" unicode="&#xef;" horiz-adv-x="144" 
d="M40 500h70v-500h-70v500zM-46 636q0 18 12 30t30 12t30 -12t12 -30t-12 -30t-30 -12t-30 12t-12 30zM114 636q0 18 12 30t30 12t30 -12t12 -30t-12 -30t-30 -12t-30 12t-12 30z" />
    <glyph glyph-name="ntilde" unicode="&#xf1;" horiz-adv-x="530" 
d="M416 300q0 32 -12 60t-33 49t-49 33t-59 12t-59 -13t-49 -34.5t-33.5 -49.5t-12.5 -57l1 -300h-71v500h70v-46q10 16 27 29.5t37.5 23t43.5 14.5t46 5q46 0 87 -18t71.5 -48.5t48.5 -72t18 -87.5l1 -300h-72zM320 673l62 -37q-24 -41 -66 -52.5t-83 12.5q-15 10 -28 5
t-22 -21l-62 37q24 41 66 52.5t83 -11.5q15 -9 28 -4.5t22 19.5z" />
    <glyph glyph-name="ograve" unicode="&#xf2;" horiz-adv-x="601" 
d="M27 251q0 57 21.5 107t59 87.5t87.5 59t107 21.5t107 -21.5t87.5 -59t59 -87.5t21.5 -107t-21.5 -107t-59 -87.5t-87.5 -59t-107 -21.5t-107 21.5t-87.5 59t-59 87.5t-21.5 107zM97 251q0 -42 16 -79.5t44 -65.5t65.5 -44t79.5 -16t79.5 16t65.5 44t44 65.5t16 79.5
t-16 79.5t-44 65.5t-65.5 44t-79.5 16t-79.5 -16t-65.5 -44t-44 -65.5t-16 -79.5zM213 699h74l51 -127h-74z" />
    <glyph glyph-name="oacute" unicode="&#xf3;" horiz-adv-x="601" 
d="M27 251q0 57 21.5 107t59 87.5t87.5 59t107 21.5t107 -21.5t87.5 -59t59 -87.5t21.5 -107t-21.5 -107t-59 -87.5t-87.5 -59t-107 -21.5t-107 21.5t-87.5 59t-59 87.5t-21.5 107zM97 251q0 -42 16 -79.5t44 -65.5t65.5 -44t79.5 -16t79.5 16t65.5 44t44 65.5t16 79.5
t-16 79.5t-44 65.5t-65.5 44t-79.5 16t-79.5 -16t-65.5 -44t-44 -65.5t-16 -79.5zM337 572h-74l51 127h74z" />
    <glyph glyph-name="ocircumflex" unicode="&#xf4;" horiz-adv-x="601" 
d="M27 251q0 57 21.5 107t59 87.5t87.5 59t107 21.5t107 -21.5t87.5 -59t59 -87.5t21.5 -107t-21.5 -107t-59 -87.5t-87.5 -59t-107 -21.5t-107 21.5t-87.5 59t-59 87.5t-21.5 107zM97 251q0 -42 16 -79.5t44 -65.5t65.5 -44t79.5 -16t79.5 16t65.5 44t44 65.5t16 79.5
t-16 79.5t-44 65.5t-65.5 44t-79.5 16t-79.5 -16t-65.5 -44t-44 -65.5t-16 -79.5zM350 700l92 -130h-76l-60 84l-61 -84h-75l91 130h89z" />
    <glyph glyph-name="otilde" unicode="&#xf5;" horiz-adv-x="601" 
d="M27 251q0 57 21.5 107t59 87.5t87.5 59t107 21.5t107 -21.5t87.5 -59t59 -87.5t21.5 -107t-21.5 -107t-59 -87.5t-87.5 -59t-107 -21.5t-107 21.5t-87.5 59t-59 87.5t-21.5 107zM97 251q0 -42 16 -79.5t44 -65.5t65.5 -44t79.5 -16t79.5 16t65.5 44t44 65.5t16 79.5
t-16 79.5t-44 65.5t-65.5 44t-79.5 16t-79.5 -16t-65.5 -44t-44 -65.5t-16 -79.5zM365 673l62 -37q-24 -41 -66 -52.5t-83 12.5q-15 10 -28 5t-22 -21l-62 37q24 41 66 52.5t83 -11.5q15 -9 28 -4.5t22 19.5z" />
    <glyph glyph-name="odieresis" unicode="&#xf6;" horiz-adv-x="601" 
d="M27 251q0 57 21.5 107t59 87.5t87.5 59t107 21.5t107 -21.5t87.5 -59t59 -87.5t21.5 -107t-21.5 -107t-59 -87.5t-87.5 -59t-107 -21.5t-107 21.5t-87.5 59t-59 87.5t-21.5 107zM97 251q0 -42 16 -79.5t44 -65.5t65.5 -44t79.5 -16t79.5 16t65.5 44t44 65.5t16 79.5
t-16 79.5t-44 65.5t-65.5 44t-79.5 16t-79.5 -16t-65.5 -44t-44 -65.5t-16 -79.5zM179 637q0 18 12 30t30 12t30 -12t12 -30t-12 -30t-30 -12t-30 12t-12 30zM339 637q0 18 12 30t30 12t30 -12t12 -30t-12 -30t-30 -12t-30 12t-12 30z" />
    <glyph glyph-name="divide" unicode="&#xf7;" horiz-adv-x="143" 
d="M31 42q0 18 12 30t30 12t30 -12t12 -30t-12 -30t-30 -12t-30 12t-12 30zM31 458q0 18 12 30t30 12t30 -12t12 -30t-12 -30t-30 -12t-30 12t-12 30zM237 274v-70h-341v70h341z" />
    <glyph glyph-name="oslash" unicode="&#xf8;" horiz-adv-x="590" 
d="M218 -97h-74l32 99q-43 21 -76 54q-37 38 -58.5 88t-21.5 107t21.5 107t59 87.5t87.5 59t107 21.5q26 0 50 -5l27 82h74l-34 -103q44 -21 77 -55q38 -37 59.5 -87t21.5 -107t-21.5 -107t-59 -87.5t-87.5 -59t-107 -21.5q-27 0 -52 5zM295 46q42 0 79.5 16t65.5 44
t44 65.5t16 79.5t-16 79.5t-44 65.5q-22 22 -50 36l-125 -384q15 -2 30 -2zM90 251q0 -42 16 -79.5t44 -65.5q21 -22 48 -36l125 384q-14 2 -28 2q-42 0 -79.5 -16t-65.5 -44t-44 -65.5t-16 -79.5z" />
    <glyph glyph-name="ugrave" unicode="&#xf9;" horiz-adv-x="524" 
d="M414 225v275h70v-275q0 -46 -17.5 -87t-48 -71.5t-71.5 -48.5t-87 -18t-87 18t-71.5 48.5t-48.5 71.5t-18 87v1l-1 274h72l1 -274v-1q0 -32 12 -60t33 -48.5t48.5 -32.5t59.5 -12t60 12t49 32.5t33 48.5t12 60zM174 699h74l51 -127h-74z" />
    <glyph glyph-name="uacute" unicode="&#xfa;" horiz-adv-x="522" 
d="M414 225v275h70v-275q0 -46 -17.5 -87t-48 -71.5t-71.5 -48.5t-87 -18t-87 18t-71.5 48.5t-48.5 71.5t-18 87v1l-1 274h72l1 -274v-1q0 -32 12 -60t33 -48.5t48.5 -32.5t59.5 -12t60 12t49 32.5t33 48.5t12 60zM298 573h-74l51 127h74z" />
    <glyph glyph-name="ucircumflex" unicode="&#xfb;" horiz-adv-x="524" 
d="M414 225v275h70v-275q0 -46 -17.5 -87t-48 -71.5t-71.5 -48.5t-87 -18t-87 18t-71.5 48.5t-48.5 71.5t-18 87v1l-1 274h72l1 -274v-1q0 -32 12 -60t33 -48.5t48.5 -32.5t59.5 -12t60 12t49 32.5t33 48.5t12 60zM305 700l92 -130h-76l-60 84l-61 -84h-75l91 130h89z" />
    <glyph glyph-name="udieresis" unicode="&#xfc;" horiz-adv-x="524" 
d="M414 225v275h70v-275q0 -46 -17.5 -87t-48 -71.5t-71.5 -48.5t-87 -18t-87 18t-71.5 48.5t-48.5 71.5t-18 87v1l-1 274h72l1 -274v-1q0 -32 12 -60t33 -48.5t48.5 -32.5t59.5 -12t60 12t49 32.5t33 48.5t12 60zM140 636q0 18 12 30t30 12t30 -12t12 -30t-12 -30t-30 -12
t-30 12t-12 30zM300 636q0 18 12 30t30 12t30 -12t12 -30t-12 -30t-30 -12t-30 12t-12 30z" />
    <glyph glyph-name="yacute" unicode="&#xfd;" horiz-adv-x="577" 
d="M414 225v275h70v-275q0 -46 -17.5 -87t-48 -71.5t-71.5 -48.5q-25 -11 -52 -16l1 -226h-71l-1 226q-27 5 -51 16q-41 18 -71.5 48.5t-48.5 71.5t-18 87v1l-1 274h72l1 -274v-1q0 -32 12 -60t33 -48.5t48.5 -32.5t59.5 -12t60 12t49 32.5t33 48.5t12 60zM302 573h-74
l51 127h74z" />
    <glyph glyph-name="thorn" unicode="&#xfe;" horiz-adv-x="626" 
d="M40 700h70v-266q5 6 10 11q38 38 88 59.5t107 21.5t107 -21.5t87.5 -59t59 -87.5t21.5 -107t-21.5 -107t-59 -87.5t-87.5 -59t-107 -21.5t-107 21.5t-88 58.5q-5 6 -10 11v-282h-70v915zM110 251q0 -42 16 -79.5t44 -65.5t65.5 -44t79.5 -16t79.5 16t65.5 44t44 65.5
t16 79.5t-16 79.5t-44 65.5t-65.5 44t-79.5 16t-79.5 -16t-65.5 -44t-44 -66q-14 -32 -16 -66v-13z" />
    <glyph glyph-name="ydieresis" unicode="&#xff;" horiz-adv-x="524" 
d="M414 225v275h70v-275q0 -46 -17.5 -87t-48 -71.5t-71.5 -48.5q-25 -11 -52 -16l1 -226h-71l-1 226q-27 5 -51 16q-41 18 -71.5 48.5t-48.5 71.5t-18 87v1l-1 274h72l1 -274v-1q0 -32 12 -60t33 -48.5t48.5 -32.5t59.5 -12t60 12t49 32.5t33 48.5t12 60zM136 636
q0 18 12 30t30 12t30 -12t12 -30t-12 -30t-30 -12t-30 12t-12 30zM296 636q0 18 12 30t30 12t30 -12t12 -30t-12 -30t-30 -12t-30 12t-12 30z" />
    <glyph glyph-name="aogonek" unicode="&#x105;" horiz-adv-x="601" 
d="M27 251q0 57 21.5 107t59 87.5t87.5 59t107 21.5t107 -21.5t87.5 -59t59 -87.5t21.5 -107v-251h-70v67l-11 -11q-37 -37 -87 -58.5t-107 -21.5t-107 21.5t-87.5 59t-59 87.5t-21.5 107zM97 251q0 -42 16 -79.5t44 -65.5t65.5 -44t79.5 -16t79.5 16t65.5 44t44 65
q14 34 16 71v9q0 42 -16 79.5t-44 65.5t-65.5 44t-79.5 16t-79.5 -16t-65.5 -44t-44 -65.5t-16 -79.5zM342 -264h-70q-21 0 -40.5 8t-33.5 22t-22.5 33t-8.5 41t8.5 41t22.5 33t33.5 22.5t40.5 8.5v55h70v-125h-70q-14 0 -24 -10.5t-10 -24.5t10 -24t24 -10h70v-70z" />
    <glyph glyph-name="Cacute" unicode="&#x106;" horiz-adv-x="765" 
d="M98 350q0 -62 24 -117.5t65.5 -97t97 -65.5t117.5 -24t117 24t96 65q18 18 33 39h83q-26 -49 -65 -88q-51 -51 -119 -80.5t-145 -29.5t-145 29.5t-119 80.5t-80.5 119t-29.5 145t29.5 145t80.5 119t119 80.5t145 29.5t145 -29.5t119 -80.5q39 -39 65 -88h-84
q-14 20 -32 37q-41 42 -96 66t-117 24t-117.5 -24t-97 -65.5t-65.5 -96.5t-24 -117zM436 769h-74l51 127h74z" />
    <glyph glyph-name="cacute" unicode="&#x107;" horiz-adv-x="575" 
d="M97 251q0 -42 16 -79.5t44 -65.5t65.5 -44t79.5 -16t79.5 16t65.5 44q20 20 34 46h77l-3 -8q-21 -50 -58.5 -87.5t-87.5 -59t-107 -21.5t-107 21.5t-87.5 59t-59 87.5t-21.5 107t21.5 107t59 87.5t87.5 59t107 21.5t107 -21.5t87.5 -59t58.5 -87.5l3 -7h-78
q-13 25 -33 45q-28 28 -65.5 44t-79.5 16t-79.5 -16t-65.5 -44t-44 -65.5t-16 -79.5zM331 573h-74l51 127h74z" />
    <glyph glyph-name="Ccircumflex" unicode="&#x108;" horiz-adv-x="765" 
d="M98 350q0 -62 24 -117.5t65.5 -97t97 -65.5t117.5 -24t117 24t96 65q18 18 33 39h83q-26 -49 -65 -88q-51 -51 -119 -80.5t-145 -29.5t-145 29.5t-119 80.5t-80.5 119t-29.5 145t29.5 145t80.5 119t119 80.5t145 29.5t145 -29.5t119 -80.5q39 -39 65 -88h-84
q-14 20 -32 37q-41 42 -96 66t-117 24t-117.5 -24t-97 -65.5t-65.5 -96.5t-24 -117zM437 899l92 -130h-76l-60 84l-61 -84h-75l91 130h89z" />
    <glyph glyph-name="ccircumflex" unicode="&#x109;" horiz-adv-x="575" 
d="M97 251q0 -42 16 -79.5t44 -65.5t65.5 -44t79.5 -16t79.5 16t65.5 44q20 20 34 46h77l-3 -8q-21 -50 -58.5 -87.5t-87.5 -59t-107 -21.5t-107 21.5t-87.5 59t-59 87.5t-21.5 107t21.5 107t59 87.5t87.5 59t107 21.5t107 -21.5t87.5 -59t58.5 -87.5l3 -7h-78
q-13 25 -33 45q-28 28 -65.5 44t-79.5 16t-79.5 -16t-65.5 -44t-44 -65.5t-16 -79.5zM345 700l92 -130h-76l-60 84l-61 -84h-75l91 130h89z" />
    <glyph glyph-name="Cdotaccent" unicode="&#x10a;" horiz-adv-x="767" 
d="M98 350q0 -62 24 -117.5t65.5 -97t97 -65.5t117.5 -24t117 24t96 65q18 18 33 39h83q-26 -49 -65 -88q-51 -51 -119 -80.5t-145 -29.5t-145 29.5t-119 80.5t-80.5 119t-29.5 145t29.5 145t80.5 119t119 80.5t145 29.5t145 -29.5t119 -80.5q39 -39 65 -88h-84
q-14 20 -32 37q-41 42 -96 66t-117 24t-117.5 -24t-97 -65.5t-65.5 -96.5t-24 -117zM357 812q0 18 12 30t30 12t30 -12t12 -30t-12 -30t-30 -12t-30 12t-12 30z" />
    <glyph glyph-name="cdotaccent" unicode="&#x10b;" horiz-adv-x="575" 
d="M97 251q0 -42 16 -79.5t44 -65.5t65.5 -44t79.5 -16t79.5 16t65.5 44q20 20 34 46h77l-3 -8q-21 -50 -58.5 -87.5t-87.5 -59t-107 -21.5t-107 21.5t-87.5 59t-59 87.5t-21.5 107t21.5 107t59 87.5t87.5 59t107 21.5t107 -21.5t87.5 -59t58.5 -87.5l3 -7h-78
q-13 25 -33 45q-28 28 -65.5 44t-79.5 16t-79.5 -16t-65.5 -44t-44 -65.5t-16 -79.5zM259 614q0 18 12 30t30 12t30 -12t12 -30t-12 -30t-30 -12t-30 12t-12 30z" />
    <glyph glyph-name="Ccaron" unicode="&#x10c;" horiz-adv-x="763" 
d="M98 350q0 -62 24 -117.5t65.5 -97t97 -65.5t117.5 -24t117 24t96 65q18 18 33 39h83q-26 -49 -65 -88q-51 -51 -119 -80.5t-145 -29.5t-145 29.5t-119 80.5t-80.5 119t-29.5 145t29.5 145t80.5 119t119 80.5t145 29.5t145 -29.5t119 -80.5q39 -39 65 -88h-84
q-14 20 -32 37q-41 42 -96 66t-117 24t-117.5 -24t-97 -65.5t-65.5 -96.5t-24 -117zM357 769l-91 130h75l61 -84l60 84h76l-92 -130h-89z" />
    <glyph glyph-name="ccaron" unicode="&#x10d;" horiz-adv-x="575" 
d="M97 251q0 -42 16 -79.5t44 -65.5t65.5 -44t79.5 -16t79.5 16t65.5 44q20 20 34 46h77l-3 -8q-21 -50 -58.5 -87.5t-87.5 -59t-107 -21.5t-107 21.5t-87.5 59t-59 87.5t-21.5 107t21.5 107t59 87.5t87.5 59t107 21.5t107 -21.5t87.5 -59t58.5 -87.5l3 -7h-78
q-13 25 -33 45q-28 28 -65.5 44t-79.5 16t-79.5 -16t-65.5 -44t-44 -65.5t-16 -79.5zM249 570l-91 130h75l61 -84l60 84h76l-92 -130h-89z" />
    <glyph glyph-name="Dcaron" unicode="&#x10e;" horiz-adv-x="656" 
d="M40 700h235q72 0 136 -27.5t111 -74.5t74.5 -111t27.5 -136t-27.5 -136t-74.5 -112t-111 -75.5t-136 -27.5h-235v700zM275 70q58 0 108.5 22t88.5 60.5t60 89.5t22 109t-22 108.5t-60 88.5t-88.5 60t-108.5 22h-165v-560h165zM206 769l-91 130h75l61 -84l60 84h76
l-92 -130h-89z" />
    <glyph glyph-name="Edotaccent" unicode="&#x116;" horiz-adv-x="539" 
d="M40 700h466v-70h-396v-288h326v-70h-326v-202h396v-70h-466v700zM246 788q0 18 12 30t30 12t30 -12t12 -30t-12 -30t-30 -12t-30 12t-12 30z" />
    <glyph glyph-name="edotaccent" unicode="&#x117;" 
d="M97 251q0 -42 16 -79.5t44 -65.5t65.5 -44t79.5 -16t79.5 16t65.5 44q20 20 34 46h77l-3 -8q-21 -50 -58.5 -87.5t-87.5 -59t-107 -21.5t-107 21.5t-87.5 59t-59 87.5t-21.5 107t21.5 107t59 87.5t87.5 59t107 21.5t107 -21.5t87.5 -59t58.5 -87.5q18 -41 21 -86h-478
q-1 -11 -1 -21zM447 396q-28 28 -65.5 44t-79.5 16t-79.5 -16t-65.5 -44q-24 -24 -39 -54h367q-15 30 -38 54zM260 614q0 18 12 30t30 12t30 -12t12 -30t-12 -30t-30 -12t-30 12t-12 30z" />
    <glyph glyph-name="Eogonek" unicode="&#x118;" horiz-adv-x="533" 
d="M40 700h466v-70h-396v-288h326v-70h-326v-202h396v-70h-466v700zM321 -264h-70q-21 0 -40.5 8t-33.5 22t-22.5 33t-8.5 41t8.5 41t22.5 33t33.5 22.5t40.5 8.5v55h70v-125h-70q-14 0 -24 -10.5t-10 -24.5t10 -24t24 -10h70v-70z" />
    <glyph glyph-name="eogonek" unicode="&#x119;" 
d="M97 251q0 -42 16 -79.5t44 -65.5t65.5 -44t79.5 -16t79.5 16t65.5 44q20 20 34 46h77l-3 -8q-21 -50 -58.5 -87.5t-87.5 -59t-107 -21.5t-107 21.5t-87.5 59t-59 87.5t-21.5 107t21.5 107t59 87.5t87.5 59t107 21.5t107 -21.5t87.5 -59t58.5 -87.5q18 -41 21 -86h-478
q-1 -11 -1 -21zM447 396q-28 28 -65.5 44t-79.5 16t-79.5 -16t-65.5 -44q-24 -24 -39 -54h367q-15 30 -38 54zM339 -264h-70q-21 0 -40.5 8t-33.5 22t-22.5 33t-8.5 41t8.5 41t22.5 33t33.5 22.5t40.5 8.5v55h70v-125h-70q-14 0 -24 -10.5t-10 -24.5t10 -24t24 -10h70v-70z
" />
    <glyph glyph-name="Ecaron" unicode="&#x11a;" horiz-adv-x="531" 
d="M40 700h466v-70h-396v-288h326v-70h-326v-202h396v-70h-466v700zM232 769l-91 130h75l61 -84l60 84h76l-92 -130h-89z" />
    <glyph glyph-name="ecaron" unicode="&#x11b;" 
d="M97 251q0 -42 16 -79.5t44 -65.5t65.5 -44t79.5 -16t79.5 16t65.5 44q20 20 34 46h77l-3 -8q-21 -50 -58.5 -87.5t-87.5 -59t-107 -21.5t-107 21.5t-87.5 59t-59 87.5t-21.5 107t21.5 107t59 87.5t87.5 59t107 21.5t107 -21.5t87.5 -59t58.5 -87.5q18 -41 21 -86h-478
q-1 -11 -1 -21zM447 396q-28 28 -65.5 44t-79.5 16t-79.5 -16t-65.5 -44q-24 -24 -39 -54h367q-15 30 -38 54zM259 570l-91 130h75l61 -84l60 84h76l-92 -130h-89z" />
    <glyph glyph-name="Gcircumflex" unicode="&#x11c;" horiz-adv-x="798" 
d="M743 342q1 -165 -58.5 -239t-132.5 -100.5t-150 -26.5t-145 29.5t-119 80.5t-80.5 119t-29.5 145t29.5 145t80.5 119t119 80.5t145 29.5t145 -29.5t119 -80.5q39 -39 65 -88h-84q-14 20 -32 37q-41 42 -96 66t-117 24t-117.5 -24t-97 -65.5t-65.5 -96.5t-24 -117
t24 -117.5t65.5 -97t97 -65.5t117.5 -24t120 19.5t100 75.5t40 131h-234v70h315zM436 899l92 -130h-76l-60 84l-61 -84h-75l91 130h89z" />
    <glyph glyph-name="gcircumflex" unicode="&#x11d;" horiz-adv-x="603" 
d="M506 500h70v-238v-210q0 -57 -21.5 -107t-59 -87.5t-87.5 -59t-107 -21.5t-107 21.5t-88 59.5q-20 20 -36 45l51 51q14 -26 35 -47q28 -28 65.5 -44t79.5 -16t79.5 16t65.5 44t44 65.5t16 79.5v15l-11 -11q-37 -37 -87 -58.5t-107 -21.5t-107 21.5t-87.5 59t-59 87.5
t-21.5 107t21.5 107t59 87.5t87.5 59t107 21.5t107 -21.5t87 -59.5q6 -5 11 -11v66zM96 251q0 -42 16 -79.5t44 -65.5t65.5 -44t79.5 -16t79.5 16t65.5 44t44 65.5t16 87.5q0 39 -14 72q-18 37 -46 65t-65.5 44t-79.5 16t-79.5 -16t-65.5 -44t-44 -65.5t-16 -79.5zM344 700
l92 -130h-76l-60 84l-61 -84h-75l91 130h89z" />
    <glyph glyph-name="Gdotaccent" unicode="&#x120;" horiz-adv-x="804" 
d="M743 342q1 -165 -58.5 -239t-132.5 -100.5t-150 -26.5t-145 29.5t-119 80.5t-80.5 119t-29.5 145t29.5 145t80.5 119t119 80.5t145 29.5t145 -29.5t119 -80.5q39 -39 65 -88h-84q-14 20 -32 37q-41 42 -96 66t-117 24t-117.5 -24t-97 -65.5t-65.5 -96.5t-24 -117
t24 -117.5t65.5 -97t97 -65.5t117.5 -24t120 19.5t100 75.5t40 131h-234v70h315zM350 838q0 18 12 30t30 12t30 -12t12 -30t-12 -30t-30 -12t-30 12t-12 30z" />
    <glyph glyph-name="Itilde" unicode="&#x128;" horiz-adv-x="152" 
d="M40 700h70v-700h-70v700zM152 848l62 -37q-24 -41 -66 -52.5t-83 12.5q-15 10 -28 5t-22 -21l-62 37q24 41 66 52.5t83 -11.5q15 -9 28 -4.5t22 19.5z" />
    <glyph glyph-name="dotlessi" unicode="&#x131;" horiz-adv-x="148" 
d="M40 500h70v-500h-70v500z" />
    <glyph glyph-name="nacute" unicode="&#x144;" horiz-adv-x="530" 
d="M416 300q0 32 -12 60t-33 49t-49 33t-59 12t-59 -13t-49 -34.5t-33.5 -49.5t-12.5 -57l1 -300h-71v500h70v-46q10 16 27 29.5t37.5 23t43.5 14.5t46 5q46 0 87 -18t71.5 -48.5t48.5 -72t18 -87.5l1 -300h-72zM311 573h-74l51 127h74z" />
    <glyph glyph-name="Ncaron" unicode="&#x147;" horiz-adv-x="544" 
d="M436 700h70v-700h-70l-326 560v-560h-70v700h70l326 -560v560zM231 769l-91 130h75l61 -84l60 84h76l-92 -130h-89z" />
    <glyph glyph-name="ncaron" unicode="&#x148;" horiz-adv-x="528" 
d="M416 300q0 32 -12 60t-33 49t-49 33t-59 12t-59 -13t-49 -34.5t-33.5 -49.5t-12.5 -57l1 -300h-71v500h70v-46q10 16 27 29.5t37.5 23t43.5 14.5t46 5q46 0 87 -18t71.5 -48.5t48.5 -72t18 -87.5l1 -300h-72zM222 570l-91 130h75l61 -84l60 84h76l-92 -130h-89z" />
    <glyph glyph-name="OE" unicode="&#x152;" horiz-adv-x="867" 
d="M379 0q-72 0 -136 27.5t-111.5 75t-75 111.5t-27.5 136t27.5 136t75 111.5t111.5 75t136 27.5h466v-70h-396v-288h326v-70h-326v-202h396v-70h-466zM100 349q0 -58 22 -109t59.5 -88.5t88.5 -59.5t109 -22v559q-58 0 -109 -22t-88.5 -60t-59.5 -89t-22 -109z" />
    <glyph glyph-name="oe" unicode="&#x153;" horiz-adv-x="1085" 
d="M28 251q0 57 21.5 107t59 87.5t87.5 59t107 21.5t107 -21.5t87.5 -59t59 -87.5t21.5 -107t-21.5 -107t-59 -87.5t-87.5 -59t-107 -21.5t-107 21.5t-87.5 59t-59 87.5t-21.5 107zM98 251q0 -42 16 -79.5t44 -65.5t65.5 -44t79.5 -16t79.5 16t65.5 44t44 65.5t16 79.5
t-16 79.5t-44 65.5t-65.5 44t-79.5 16t-79.5 -16t-65.5 -44t-44 -65.5t-16 -79.5zM578 251q0 -42 16 -79.5t44 -65.5t65.5 -44t79.5 -16t79.5 16t65.5 44q20 20 34 46h77l-3 -8q-21 -50 -58.5 -87.5t-87.5 -59t-107 -21.5t-107 21.5t-87.5 59t-59 87.5t-21.5 107t21.5 107
t59 87.5t87.5 59t107 21.5t107 -21.5t87.5 -59t58.5 -87.5q18 -41 21 -86h-478q-1 -11 -1 -21zM928 396q-28 28 -65.5 44t-79.5 16t-79.5 -16t-65.5 -44q-24 -24 -39 -54h367q-15 30 -38 54z" />
    <glyph glyph-name="Racute" unicode="&#x154;" horiz-adv-x="537" 
d="M40 700h208q102 0 167 -50q31 -29 47 -71.5t16 -90.5q0 -110 -63 -165q-13 -10 -28 -19q14 -8 27 -17q63 -55 63 -144v-143h-70v143q0 30 -11 53t-33 42q-37 34 -104 34h-149v-272h-70v700zM363 372q44 37 44 117q0 79 -44 114q-40 34 -114 34h-139v-299h139q74 0 114 34
zM281 769h-74l51 127h74z" />
    <glyph glyph-name="racute" unicode="&#x155;" horiz-adv-x="344" 
d="M40 500h70v-95q5 10 11 16q38 38 88 59.5t107 21.5v-70q-42 0 -79.5 -16t-65.5 -44t-44 -65.5t-16 -79.5v-227h-70zM221 573h-74l51 127h74z" />
    <glyph glyph-name="Rcaron" unicode="&#x158;" horiz-adv-x="535" 
d="M40 700h208q102 0 167 -50q31 -29 47 -71.5t16 -90.5q0 -110 -63 -165q-13 -10 -28 -19q14 -8 27 -17q63 -55 63 -144v-143h-70v143q0 30 -11 53t-33 42q-37 34 -104 34h-149v-272h-70v700zM363 372q44 37 44 117q0 79 -44 114q-40 34 -114 34h-139v-299h139q74 0 114 34
zM211 769l-91 130h75l61 -84l60 84h76l-92 -130h-89z" />
    <glyph glyph-name="rcaron" unicode="&#x159;" horiz-adv-x="344" 
d="M40 500h70v-95q5 10 11 16q38 38 88 59.5t107 21.5v-70q-42 0 -79.5 -16t-65.5 -44t-44 -65.5t-16 -79.5v-227h-70zM143 570l-91 130h75l61 -84l60 84h76l-92 -130h-89z" />
    <glyph glyph-name="Sacute" unicode="&#x15a;" horiz-adv-x="531" 
d="M450 179q0 49 -27 79t-68.5 49.5t-91.5 35t-95 35.5t-79 50.5t-44 80.5q-5 43 12.5 82t50 68.5t77 47t92.5 17.5q54 0 94 -19t68 -45.5t43.5 -55.5t18.5 -49h-77q-19 48 -60 73t-87 26q-31 1 -62 -10t-54.5 -30t-36 -45t-6.5 -55q8 -35 40.5 -55.5t77.5 -36.5t95 -32
t92 -41.5t69.5 -65.5t27.5 -104q0 -48 -20 -86t-53.5 -64t-77.5 -39.5t-92 -13.5t-94 17t-81 47.5t-56.5 73.5t-21.5 95h70q0 -34 14.5 -64t39.5 -52t58.5 -35t70.5 -12q34 1 65 9t55 24.5t38.5 41t14.5 58.5zM314 769h-74l51 127h74z" />
    <glyph glyph-name="sacute" unicode="&#x15b;" horiz-adv-x="402" 
d="M313 125q1 34 -12.5 53t-39.5 31t-65 22t-72 24t-57 42t-29 70q-4 33 9 61t36.5 49.5t56.5 35t68 13.5q40 0 69.5 -13t49.5 -33.5t31.5 -41.5t13.5 -36h-75q-9 29 -34 44.5t-55 15.5q-20 0 -43 -8t-42.5 -32t-14.5 -51q5 -24 23.5 -37t49 -24t67.5 -23t69.5 -32.5
t50.5 -51.5t18 -78q0 -35 -14.5 -63t-39 -47t-57 -29t-67.5 -10t-69 12.5t-60 35t-41.5 54t-14.5 74.5h71q0 -26 10.5 -48.5t38 -41t70.5 -17.5q49 0 73.5 23.5t26.5 56.5zM243 573h-74l51 127h74z" />
    <glyph glyph-name="Scircumflex" unicode="&#x15c;" horiz-adv-x="531" 
d="M450 179q0 49 -27 79t-68.5 49.5t-91.5 35t-95 35.5t-79 50.5t-44 80.5q-5 43 12.5 82t50 68.5t77 47t92.5 17.5q54 0 94 -19t68 -45.5t43.5 -55.5t18.5 -49h-77q-19 48 -60 73t-87 26q-31 1 -62 -10t-54.5 -30t-36 -45t-6.5 -55q8 -35 40.5 -55.5t77.5 -36.5t95 -32
t92 -41.5t69.5 -65.5t27.5 -104q0 -48 -20 -86t-53.5 -64t-77.5 -39.5t-92 -13.5t-94 17t-81 47.5t-56.5 73.5t-21.5 95h70q0 -34 14.5 -64t39.5 -52t58.5 -35t70.5 -12q34 1 65 9t55 24.5t38.5 41t14.5 58.5zM320 899l92 -130h-76l-60 84l-61 -84h-75l91 130h89z" />
    <glyph glyph-name="scircumflex" unicode="&#x15d;" horiz-adv-x="400" 
d="M310 125q1 34 -12.5 53t-39.5 31t-65 22t-72 24t-57 42t-29 70q-4 33 9 61t36.5 49.5t56.5 35t68 13.5q40 0 69.5 -13t49.5 -33.5t31.5 -41.5t13.5 -36h-75q-9 29 -34 44.5t-55 15.5q-20 0 -43 -8t-42.5 -32t-14.5 -51q5 -24 23.5 -37t49 -24t67.5 -23t69.5 -32.5
t50.5 -51.5t18 -78q0 -35 -14.5 -63t-39 -47t-57 -29t-67.5 -10t-69 12.5t-60 35t-41.5 54t-14.5 74.5h71q0 -26 10.5 -48.5t38 -41t70.5 -17.5q49 0 73.5 23.5t26.5 56.5zM248 700l92 -130h-76l-60 84l-61 -84h-75l91 130h89z" />
    <glyph glyph-name="Scaron" unicode="&#x160;" horiz-adv-x="531" 
d="M450 179q0 49 -27 79t-68.5 49.5t-91.5 35t-95 35.5t-79 50.5t-44 80.5q-5 43 12.5 82t50 68.5t77 47t92.5 17.5q54 0 94 -19t68 -45.5t43.5 -55.5t18.5 -49h-77q-19 48 -60 73t-87 26q-31 1 -62 -10t-54.5 -30t-36 -45t-6.5 -55q8 -35 40.5 -55.5t77.5 -36.5t95 -32
t92 -41.5t69.5 -65.5t27.5 -104q0 -48 -20 -86t-53.5 -64t-77.5 -39.5t-92 -13.5t-94 17t-81 47.5t-56.5 73.5t-21.5 95h70q0 -34 14.5 -64t39.5 -52t58.5 -35t70.5 -12q34 1 65 9t55 24.5t38.5 41t14.5 58.5zM237 769l-91 130h75l61 -84l60 84h76l-92 -130h-89z" />
    <glyph glyph-name="scaron" unicode="&#x161;" horiz-adv-x="406" 
d="M310 125q1 34 -12.5 53t-39.5 31t-65 22t-72 24t-57 42t-29 70q-4 33 9 61t36.5 49.5t56.5 35t68 13.5q40 0 69.5 -13t49.5 -33.5t31.5 -41.5t13.5 -36h-75q-9 29 -34 44.5t-55 15.5q-20 0 -43 -8t-42.5 -32t-14.5 -51q5 -24 23.5 -37t49 -24t67.5 -23t69.5 -32.5
t50.5 -51.5t18 -78q0 -35 -14.5 -63t-39 -47t-57 -29t-67.5 -10t-69 12.5t-60 35t-41.5 54t-14.5 74.5h71q0 -26 10.5 -48.5t38 -41t70.5 -17.5q49 0 73.5 23.5t26.5 56.5zM156 570l-91 130h75l61 -84l60 84h76l-92 -130h-89z" />
    <glyph glyph-name="Utilde" unicode="&#x168;" horiz-adv-x="543" 
d="M106 209q0 -34 12.5 -64t34.5 -52t52 -34.5t64 -12.5t64 12.5t52 34.5t34.5 52t12.5 64v491h70v-491q0 -49 -18 -91.5t-49.5 -74t-74 -49.5t-91.5 -18t-91.5 18t-74 49.5t-49.5 74t-18 91.5v491h70v-491zM340 871l62 -37q-24 -41 -66 -52.5t-83 12.5q-15 10 -28 5
t-22 -21l-62 37q24 41 66 52.5t83 -11.5q15 -9 28 -4.5t22 19.5z" />
    <glyph glyph-name="utilde" unicode="&#x169;" horiz-adv-x="519" 
d="M414 225v275h70v-275q0 -46 -17.5 -87t-48 -71.5t-71.5 -48.5t-87 -18t-87 18t-71.5 48.5t-48.5 71.5t-18 87v1l-1 274h72l1 -274v-1q0 -32 12 -60t33 -48.5t48.5 -32.5t59.5 -12t60 12t49 32.5t33 48.5t12 60zM333 649l62 -37q-24 -41 -66 -52.5t-83 12.5q-15 10 -28 5
t-22 -21l-62 37q24 41 66 52.5t83 -11.5q15 -9 28 -4.5t22 19.5z" />
    <glyph glyph-name="Wcircumflex" unicode="&#x174;" horiz-adv-x="674" 
d="M333 305l-223 -305h-70v700h70v-581l223 304l225 -305v582h70v-700h-70zM376 899l92 -130h-76l-60 84l-61 -84h-75l91 130h89z" />
    <glyph glyph-name="wcircumflex" unicode="&#x175;" horiz-adv-x="902" 
d="M791 500h72v-298q0 -47 -17.5 -88t-48.5 -71.5t-72 -48.5t-87 -18q-60 0 -109.5 28t-79.5 76q-31 -48 -80.5 -76t-108.5 -28q-47 0 -87.5 18t-70.5 48.5t-47.5 71.5t-17.5 88v298h70v-298q0 -32 12 -60t32.5 -49t48.5 -33t60 -12q31 0 59 12t49 33t33.5 49t12.5 60v298
h72v-298q1 -34 13.5 -62t33 -48.5t47.5 -32t58 -11.5q32 0 60 12t48.5 33t32.5 49t12 60v298zM493 700l92 -130h-76l-60 84l-61 -84h-75l91 130h89z" />
    <glyph glyph-name="Ycircumflex" unicode="&#x176;" horiz-adv-x="541" 
d="M13 700h77l184 -357l184 357h77l-223 -425v-275h-75v273zM318 899l92 -130h-76l-60 84l-61 -84h-75l91 130h89z" />
    <glyph glyph-name="Ydieresis" unicode="&#x178;" horiz-adv-x="541" 
d="M13 700h77l184 -357l184 357h77l-223 -425v-275h-75v273zM153 839q0 18 12 30t30 12t30 -12t12 -30t-12 -30t-30 -12t-30 12t-12 30zM313 839q0 18 12 30t30 12t30 -12t12 -30t-12 -30t-30 -12t-30 12t-12 30z" />
    <glyph glyph-name="Zacute" unicode="&#x179;" horiz-adv-x="519" 
d="M24 0v70l382 560h-382v70h466v-70l-384 -560h384v-70h-466zM294 769h-74l51 127h74z" />
    <glyph glyph-name="zacute" unicode="&#x17a;" horiz-adv-x="393" 
d="M28 0l228 430h-228v70h346l-229 -430h229v-70h-346zM233 573h-74l51 127h74z" />
    <glyph glyph-name="Zdotaccent" unicode="&#x17b;" horiz-adv-x="515" 
d="M24 0v70l382 560h-382v70h466v-70l-384 -560h384v-70h-466zM223 812q0 18 12 30t30 12t30 -12t12 -30t-12 -30t-30 -12t-30 12t-12 30z" />
    <glyph glyph-name="Zcaron" unicode="&#x17d;" horiz-adv-x="515" 
d="M24 0v70l382 560h-382v70h466v-70l-384 -560h384v-70h-466zM211 768l-91 130h75l61 -84l60 84h76l-92 -130h-89z" />
    <glyph glyph-name="zcaron" unicode="&#x17e;" horiz-adv-x="400" 
d="M33 0l228 430h-228v70h346l-229 -430h229v-70h-346zM175 570l-91 130h75l61 -84l60 84h76l-92 -130h-89z" />
    <glyph glyph-name="florin" unicode="&#x192;" horiz-adv-x="320" 
d="M-87 -63q0 -26 18.5 -44.5t44.5 -18.5t45 18.5t19 44.5v335h-51v70h51v224q0 28 10.5 52.5t28.5 42.5t42.5 28.5t52.5 10.5t52.5 -10.5t43 -28.5t29 -42.5t10.5 -52.5h-70q0 26 -19 44.5t-45 18.5t-44.5 -18.5t-18.5 -44.5v-224h129v-70h-129v-335q0 -28 -11 -52.5
t-29.5 -42.5t-43.5 -28.5t-53 -10.5t-52.5 10.5t-42.5 28.5t-28.5 42.5t-10.5 52.5h72z" />
    <glyph glyph-name="circumflex" unicode="&#x2c6;" horiz-adv-x="315" 
d="M202 700l92 -130h-76l-60 84l-61 -84h-75l91 130h89z" />
    <glyph glyph-name="caron" unicode="&#x2c7;" horiz-adv-x="312" 
d="M111 570l-91 130h75l61 -84l60 84h76l-92 -130h-89z" />
    <glyph glyph-name="dotaccent" unicode="&#x2d9;" horiz-adv-x="141" 
d="M29 838q0 18 12 30t30 12t30 -12t12 -30t-12 -30t-30 -12t-30 12t-12 30z" />
    <glyph glyph-name="ogonek" unicode="&#x2db;" horiz-adv-x="230" 
d="M191 -264h-70q-21 0 -40.5 8t-33.5 22t-22.5 33t-8.5 41t8.5 41t22.5 33t33.5 22.5t40.5 8.5v55h70v-125h-70q-14 0 -24 -10.5t-10 -24.5t10 -24t24 -10h70v-70z" />
    <glyph glyph-name="tilde" unicode="&#x2dc;" horiz-adv-x="300" 
d="M218 890l62 -37q-24 -41 -66 -52.5t-83 12.5q-15 10 -28 5t-22 -21l-62 37q24 41 66 52.5t83 -11.5q15 -9 28 -4.5t22 19.5z" />
    <glyph glyph-name="Wgrave" unicode="&#x1e80;" horiz-adv-x="672" 
d="M333 305l-223 -305h-70v700h70v-581l223 304l225 -305v582h70v-700h-70zM248 896h74l51 -127h-74z" />
    <glyph glyph-name="wgrave" unicode="&#x1e81;" horiz-adv-x="902" 
d="M791 500h72v-298q0 -47 -17.5 -88t-48.5 -71.5t-72 -48.5t-87 -18q-60 0 -109.5 28t-79.5 76q-31 -48 -80.5 -76t-108.5 -28q-47 0 -87.5 18t-70.5 48.5t-47.5 71.5t-17.5 88v298h70v-298q0 -32 12 -60t32.5 -49t48.5 -33t60 -12q31 0 59 12t49 33t33.5 49t12.5 60v298
h72v-298q1 -34 13.5 -62t33 -48.5t47.5 -32t58 -11.5q32 0 60 12t48.5 33t32.5 49t12 60v298zM360 699h74l51 -127h-74z" />
    <glyph glyph-name="Wacute" unicode="&#x1e82;" horiz-adv-x="672" 
d="M333 305l-223 -305h-70v700h70v-581l223 304l225 -305v582h70v-700h-70zM376 769h-74l51 127h74z" />
    <glyph glyph-name="wacute" unicode="&#x1e83;" horiz-adv-x="902" 
d="M791 500h72v-298q0 -47 -17.5 -88t-48.5 -71.5t-72 -48.5t-87 -18q-60 0 -109.5 28t-79.5 76q-31 -48 -80.5 -76t-108.5 -28q-47 0 -87.5 18t-70.5 48.5t-47.5 71.5t-17.5 88v298h70v-298q0 -32 12 -60t32.5 -49t48.5 -33t60 -12q31 0 59 12t49 33t33.5 49t12.5 60v298
h72v-298q1 -34 13.5 -62t33 -48.5t47.5 -32t58 -11.5q32 0 60 12t48.5 33t32.5 49t12 60v298zM489 572h-74l51 127h74z" />
    <glyph glyph-name="Wdieresis" unicode="&#x1e84;" horiz-adv-x="670" 
d="M333 305l-223 -305h-70v700h70v-581l223 304l225 -305v582h70v-700h-70zM213 837q0 18 12 30t30 12t30 -12t12 -30t-12 -30t-30 -12t-30 12t-12 30zM373 837q0 18 12 30t30 12t30 -12t12 -30t-12 -30t-30 -12t-30 12t-12 30z" />
    <glyph glyph-name="wdieresis" unicode="&#x1e85;" horiz-adv-x="902" 
d="M791 500h72v-298q0 -47 -17.5 -88t-48.5 -71.5t-72 -48.5t-87 -18q-60 0 -109.5 28t-79.5 76q-31 -48 -80.5 -76t-108.5 -28q-47 0 -87.5 18t-70.5 48.5t-47.5 71.5t-17.5 88v298h70v-298q0 -32 12 -60t32.5 -49t48.5 -33t60 -12q31 0 59 12t49 33t33.5 49t12.5 60v298
h72v-298q1 -34 13.5 -62t33 -48.5t47.5 -32t58 -11.5q32 0 60 12t48.5 33t32.5 49t12 60v298zM327 636q0 18 12 30t30 12t30 -12t12 -30t-12 -30t-30 -12t-30 12t-12 30zM487 636q0 18 12 30t30 12t30 -12t12 -30t-12 -30t-30 -12t-30 12t-12 30z" />
    <glyph glyph-name="Ygrave" unicode="&#x1ef2;" horiz-adv-x="541" 
d="M13 700h77l184 -357l184 357h77l-223 -425v-275h-75v273zM188 896h74l51 -127h-74z" />
    <glyph glyph-name="endash" unicode="&#x2013;" horiz-adv-x="494" 
d="M40 230v70h414v-70h-414z" />
    <glyph glyph-name="emdash" unicode="&#x2014;" horiz-adv-x="574" 
d="M40 230v70h494v-70h-494z" />
    <glyph glyph-name="quoteleft" unicode="&#x2018;" horiz-adv-x="135" 
d="M112 605q0 -18 -12 -30t-30 -12t-30 12t-12 30v39q0 13 5.5 26t19.5 22q25 13 32 5t-4 -18q-24 -13 -17 -32q28 0 38 -12t10 -30z" />
    <glyph glyph-name="quoteright" unicode="&#x2019;" horiz-adv-x="134" 
d="M28 658q0 18 12 30t30 12t30 -12t12 -30v-39q0 -13 -5.5 -26t-19.5 -22q-25 -13 -32 -5t4 18q24 13 17 32q-28 0 -38 12t-10 30z" />
    <glyph glyph-name="quotesinglbase" unicode="&#x201a;" horiz-adv-x="134" 
d="M21 42q0 18 12 30t30 12t30 -12t12 -30v-19q0 -20 -13.5 -33.5t-33.5 -13.5h-7q-3 0 -5 2q17 3 17 22q-18 0 -30 12t-12 30z" />
    <glyph glyph-name="quotedblleft" unicode="&#x201c;" horiz-adv-x="249" 
d="M232 605q0 -18 -12 -30t-30 -12t-30 12t-12 30v39q0 13 5.5 26t19.5 22q25 13 32 5t-4 -18q-24 -13 -17 -32q28 0 38 -12t10 -30zM102 605q0 -18 -12 -30t-30 -12t-30 12t-12 30v39q0 13 5.5 26t19.5 22q25 13 32 5t-4 -18q-24 -13 -17 -32q28 0 38 -12t10 -30z" />
    <glyph glyph-name="quotedblright" unicode="&#x201d;" horiz-adv-x="248" 
d="M18 658q0 18 12 30t30 12t30 -12t12 -30v-39q0 -13 -5.5 -26t-19.5 -22q-25 -13 -32 -5t4 18q24 13 17 32q-28 0 -38 12t-10 30zM148 658q0 18 12 30t30 12t30 -12t12 -30v-39q0 -13 -5.5 -26t-19.5 -22q-25 -13 -32 -5t4 18q24 13 17 32q-28 0 -38 12t-10 30z" />
    <glyph glyph-name="quotedblbase" unicode="&#x201e;" horiz-adv-x="260" 
d="M25 42q0 18 12 30t30 12t30 -12t12 -30v-39q0 -13 -5.5 -26t-19.5 -22q-25 -13 -32 -5t4 18q24 13 17 32q-28 0 -38 12t-10 30zM155 42q0 18 12 30t30 12t30 -12t12 -30v-39q0 -13 -5.5 -26t-19.5 -22q-25 -13 -32 -5t4 18q24 13 17 32q-28 0 -38 12t-10 30z" />
    <glyph glyph-name="dagger" unicode="&#x2020;" horiz-adv-x="349" 
d="M345 500v-70h-136v-645h-70v645h-135v70h135v324h70v-324h136z" />
    <glyph glyph-name="daggerdbl" unicode="&#x2021;" horiz-adv-x="485" 
d="M481 500v-70h-204v-140h204v-70h-204v-435h-70v435h-202v70h202v140h-202v70h202v324h70v-324h204z" />
    <glyph glyph-name="bullet" unicode="&#x2022;" horiz-adv-x="228" 
d="M29 299q0 37 24.5 61.5t60.5 24.5q37 0 61.5 -24.5t24.5 -61.5q0 -36 -24.5 -60.5t-61.5 -24.5q-36 0 -60.5 24.5t-24.5 60.5z" />
    <glyph glyph-name="ellipsis" unicode="&#x2026;" horiz-adv-x="365" 
d="M37 42q0 18 12 30t30 12t30 -12t12 -30t-12 -30t-30 -12t-30 12t-12 30zM141 42q0 18 12 30t30 12t30 -12t12 -30t-12 -30t-30 -12t-30 12t-12 30zM245 42q0 18 12 30t30 12t30 -12t12 -30t-12 -30t-30 -12t-30 12t-12 30z" />
    <glyph glyph-name="perthousand" unicode="&#x2030;" horiz-adv-x="496" 
d="M32 659q0 18 12 30t30 12t30 -12t12 -30t-12 -30t-30 -12t-30 12t-12 30zM251 42q0 18 12 30t30 12t30 -12t12 -30t-12 -30t-30 -12t-30 12t-12 30zM401 42q0 18 12 30t30 12t30 -12t12 -30t-12 -30t-30 -12t-30 12t-12 30zM104 0h-74l228 700h74z" />
    <glyph glyph-name="guilsinglleft" unicode="&#x2039;" horiz-adv-x="333" 
d="M252 498l49 -50l-199 -199l199 -199l-49 -50l-249 249z" />
    <glyph glyph-name="guilsinglright" unicode="&#x203a;" horiz-adv-x="332" 
d="M329 249l-249 -249l-49 50l199 199l-199 199l49 50z" />
    <glyph glyph-name="fraction" unicode="&#x2044;" horiz-adv-x="312" 
d="M79 0h-74l228 700h74z" />
    <glyph glyph-name="Euro" unicode="&#x20ac;" horiz-adv-x="817" 
d="M464 312v-70h-265q0 -2 1 -3q23 -52 62 -91t91.5 -62t111.5 -23q39 0 75.5 10t68 29t57.5 44.5t45 57.5h84q-21 -48 -54.5 -87.5t-76.5 -68t-93.5 -44t-105.5 -15.5q-75 0 -140.5 28.5t-115 78t-78.5 114.5q-7 16 -12 32h-100v70h86q-2 19 -2 39q0 16 1 31h-85v70h98
q6 20 14 39q29 66 78.5 115.5t115 78t140.5 28.5q93 0 170.5 -43t127.5 -114h-97q-39 38 -90.5 60t-110.5 22t-111.5 -22.5t-91.5 -61.5t-62 -92q-3 -5 -5 -10h269v-70h-286q-1 -16 -1 -31q0 -20 2 -39h285z" />
    <glyph glyph-name="minus" unicode="&#x2212;" horiz-adv-x="421" 
d="M381 312v-70h-341v70h341z" />
    <glyph glyph-name="fi" unicode="&#xfb01;" horiz-adv-x="376" 
d="M270 372h-127v-372h-72v372h-51v70h51v124q0 28 10.5 52.5t28.5 42.5t42.5 28.5t52.5 10.5t52.5 -10.5t43 -28.5t29 -42.5t10.5 -52.5h-70q0 26 -19 44.5t-45 18.5t-44.5 -18.5t-18.5 -44.5v-124h197v-442h-70v372z" />
    <glyph glyph-name="fl" unicode="&#xfb02;" horiz-adv-x="378" 
d="M270 566q0 26 -19 44.5t-45 18.5t-44.5 -18.5t-18.5 -44.5v-224h79v-70h-79v-272h-72v272h-51v70h51v224q0 28 10.5 52.5t28.5 42.5t42.5 28.5t52.5 10.5t52.5 -10.5t43 -28.5t29 -42.5t10.5 -52.5v-566h-70v566z" />
    </font>
</defs>
</svg>
