<?xml version="1.0" standalone="no"?>
<!DOCTYPE svg PUBLIC "-//W3C//DTD SVG 1.1//EN" "http://www.w3.org/Graphics/SVG/1.1/DTD/svg11.dtd" >
<svg>
<metadata>
Created by FontForge 20090914 at Fri Jan 15 19:42:44 2016
 By www-data
Copyright (c) 2014 by Tarek Atrissi Design. All rights reserved.
</metadata>
<defs>
<font id="OoredooArabic-Regular" horiz-adv-x="0" >
  <font-face 
    font-family="OoredooArabic"
    font-weight="400"
    font-stretch="normal"
    units-per-em="1000"
    panose-1="1 0 5 0 0 0 0 2 0 6"
    ascent="800"
    descent="-200"
    bbox="-126 -489 1516 1099"
    underline-thickness="29"
    underline-position="-451"
    unicode-range="U+0020-U+FEFC"
  />
<missing-glyph horiz-adv-x="500" 
d="M62 0v562h375v-562h-375zM125 62h250v438h-250v-438z" />
    <glyph glyph-name="shaddehdamatan" unicode="&#x651;&#x64c;" arabic-form="isolated" 
d="M197 890l32 -0.000976562v-49c0 -23.333 -5.83301 -41.166 -17.5 -53.499s-27.5 -18.5 -47.5 -18.5c-21.333 0 -37.666 6.66699 -48.999 20c-11.333 -13.333 -27.666 -20 -48.999 -20c-20 0 -35.833 6 -47.5 18s-17.5 29.667 -17.5 53v50h32v-49
c0 -12.667 2.66699 -22.667 8 -30s13.666 -11 24.999 -11c10 0 18 3.83301 24 11.5s9 17.167 9 28.5v50h32v-49c0 -12.667 2.66699 -22.667 8 -30s13.666 -11 24.999 -11c10 0 18 3.83301 24 11.5s9 17.167 9 28.5v50zM142 1011c0 -8 3 -15.167 9 -21.5s12.667 -9.5 20 -9.5
c8 0 14.833 3.16699 20.5 9.5s8.5 13.5 8.5 21.5c0 7.33301 -2.83301 14 -8.5 20s-12.5 9 -20.5 9c-7.33301 0 -14 -3 -20 -9s-9 -12.667 -9 -20zM120 968.999c-10.667 12.667 -15.999 26.6709 -15.999 42.0039c0 18.667 6.66699 34.5 20 47.5s29 19.5 47 19.5
c18.667 0 34.667 -6.5 48 -19.5s20 -28.833 20 -47.5c0 -17.333 -6.5 -31.333 -19.5 -42s-28.167 -19 -45.5 -25l-50 -17c-14 -4.66699 -25.333 -7.5 -34 -8.5s-15.667 0.166992 -21 3.5s-9.83301 9.16602 -13.5 17.499s-7.83398 19.166 -12.501 32.499l-2 5
c-3.33301 8 -6.33301 12.833 -9 14.5s-7.66699 0.833984 -15 -2.49902l-19 -7l-14 36c14.667 5.33301 27 9.16602 37 11.499s18.5 2.66602 25.5 0.999023s13 -6 18 -13s9.83301 -16.833 14.5 -29.5l4 -13c2.66699 -8 6 -12.333 10 -13s13 1.66602 27 6.99902z" />
    <glyph glyph-name="shaddehkasratan" unicode="&#x651;&#x64d;" arabic-form="isolated" 
d="M211 870l13 -38l-212 -70l-13 36zM211 954l13 -38l-212 -70l-13 36zM197 1093l32 -0.000976562v-49c0 -23.333 -5.83301 -41.166 -17.5 -53.499s-27.5 -18.5 -47.5 -18.5c-21.333 0 -37.666 6.66699 -48.999 20c-11.333 -13.333 -27.666 -20 -48.999 -20
c-20 0 -35.833 6 -47.5 18s-17.5 29.667 -17.5 53v50h32v-49c0 -12.667 2.66699 -22.667 8 -30s13.666 -11 24.999 -11c10 0 18 3.83301 24 11.5s9 17.167 9 28.5v50h32v-49c0 -12.667 2.66699 -22.667 8 -30s13.666 -11 24.999 -11c10 0 18 3.83301 24 11.5
s9 17.167 9 28.5v50z" />
    <glyph glyph-name="shaddehfatha" unicode="&#x651;&#x64e;" arabic-form="isolated" 
d="M197 890l32 -0.000976562v-49c0 -23.333 -5.83301 -41.166 -17.5 -53.499s-27.5 -18.5 -47.5 -18.5c-21.333 0 -37.666 6.66699 -48.999 20c-11.333 -13.333 -27.666 -20 -48.999 -20c-20 0 -35.833 6 -47.5 18s-17.5 29.667 -17.5 53v50h32v-49
c0 -12.667 2.66699 -22.667 8 -30s13.666 -11 24.999 -11c10 0 18 3.83301 24 11.5s9 17.167 9 28.5v50h32v-49c0 -12.667 2.66699 -22.667 8 -30s13.666 -11 24.999 -11c10 0 18 3.83301 24 11.5s9 17.167 9 28.5v50zM211 1027l13 -38l-212 -70l-13 36z" />
    <glyph glyph-name="shaddehdamma" unicode="&#x651;&#x64f;" arabic-form="isolated" 
d="M197 890l32 -0.000976562v-49c0 -23.333 -5.83301 -41.166 -17.5 -53.499s-27.5 -18.5 -47.5 -18.5c-21.333 0 -37.666 6.66699 -48.999 20c-11.333 -13.333 -27.666 -20 -48.999 -20c-20 0 -35.833 6 -47.5 18s-17.5 29.667 -17.5 53v50h32v-49
c0 -12.667 2.66699 -22.667 8 -30s13.666 -11 24.999 -11c10 0 18 3.83301 24 11.5s9 17.167 9 28.5v50h32v-49c0 -12.667 2.66699 -22.667 8 -30s13.666 -11 24.999 -11c10 0 18 3.83301 24 11.5s9 17.167 9 28.5v50zM109 1032c0 -8 3 -15.167 9 -21.5s12.667 -9.5 20 -9.5
c8 0 14.833 3.16699 20.5 9.5s8.5 13.5 8.5 21.5c0 7.33301 -2.83301 14 -8.5 20s-12.5 9 -20.5 9c-7.33301 0 -14 -3 -20 -9s-9 -12.667 -9 -20zM15 923.999l-13 36l85 30c-10.667 12.667 -16 26.667 -16 42c0 18.667 6.66699 34.5 20 47.5s29 19.5 47 19.5
c18.667 0 34.667 -6.5 48 -19.5s20 -28.833 20 -47.5c0 -17.333 -6.5 -31.5 -19.5 -42.5s-28.167 -19.167 -45.5 -24.5z" />
    <glyph glyph-name="shaddehkasra" unicode="&#x651;&#x650;" arabic-form="isolated" 
d="M211 870l13 -38l-212 -70l-13 36zM197 1003l32 -0.000976562v-49c0 -23.333 -5.83301 -41.166 -17.5 -53.499s-27.5 -18.5 -47.5 -18.5c-21.333 0 -37.666 6.66699 -48.999 20c-11.333 -13.333 -27.666 -20 -48.999 -20c-20 0 -35.833 6 -47.5 18s-17.5 29.667 -17.5 53
v50h32v-49c0 -12.667 2.66699 -22.667 8 -30s13.666 -11 24.999 -11c10 0 18 3.83301 24 11.5s9 17.167 9 28.5v50h32v-49c0 -12.667 2.66699 -22.667 8 -30s13.666 -11 24.999 -11c10 0 18 3.83301 24 11.5s9 17.167 9 28.5v50z" />
    <glyph glyph-name="lammeeminitial" unicode="&#xfedf;&#xfee4;" horiz-adv-x="1095" arabic-form="initial" 
d="M601 69c-19.333 -39.333 -47.833 -71.1729 -85.5 -95.5059s-79.834 -36.5 -126.501 -36.5c-46 0 -87.667 11.833 -125 35.5s-65.666 54.834 -84.999 93.501c-9.33301 -11.333 -20.333 -21.166 -33 -29.499s-26.334 -15.166 -41.001 -20.499s-29.667 -9.33301 -45 -12
s-29.666 -4 -42.999 -4h-26v67h29c18 0 35.167 2.66699 51.5 8s30.5 12.833 42.5 22.5s21.667 21.167 29 34.5s11 28 11 44c0.666992 32 7.16699 62 19.5 90s29.166 52.5 50.499 73.5s46.166 37.667 74.499 50s58.5 18.5 90.5 18.5c32.667 0 63.334 -6 92.001 -18
s53.667 -28.5 75 -49.5s38.166 -45.667 50.499 -74s18.5 -58.833 18.5 -91.5c0 -16 3.66699 -30.667 11 -44s17 -24.666 29 -33.999s26.167 -16.666 42.5 -21.999s33.5 -8 51.5 -8h29v-67h-26c-13.333 0 -27.666 1.5 -42.999 4.5s-30.166 7.33301 -44.499 13
s-28 12.834 -41 21.501s-23.833 18.667 -32.5 30zM219 169.993c0 -23.333 4.5 -45.333 13.5 -66s21.167 -38.667 36.5 -54s33.333 -27.5 54 -36.5s42.667 -13.5 66 -13.5s45.333 4.5 66 13.5s38.834 21.167 54.501 36.5s28 33.333 37 54s13.5 42.667 13.5 66
s-4.5 45.333 -13.5 66s-21.333 38.834 -37 54.501s-33.834 28 -54.501 37s-42.667 13.5 -66 13.5s-45.333 -4.5 -66 -13.5s-38.667 -21.333 -54 -37s-27.5 -33.834 -36.5 -54.501s-13.5 -42.667 -13.5 -66zM775 66.9932h48c46 0 78.333 10.5 97 31.5s28 52.5 28 94.5v551h72
v-551c0 -63.333 -16.167 -111.333 -48.5 -144s-75.833 -49 -130.5 -49h-66v67z" />
    <glyph glyph-name="aleffathatanfina" unicode="&#xfe8e;&#x64b;" horiz-adv-x="311" arabic-form="final" 
d="M320 0h-66c-54.667 -0 -98.167 16.333 -130.5 49s-48.5 80.667 -48.5 144v551h72v-551c0 -42 9.33301 -73.5 28 -94.5s51 -31.5 97 -31.5h48v-67zM211 954l13 -38l-212 -70l-13 36zM211 870l13 -38l-212 -70l-13 36z" />
    <glyph glyph-name="aleffathataniso" unicode="&#x627;&#x64b;" horiz-adv-x="221" arabic-form="isolated" 
d="M75 744h71v-744h-71v744zM211 870l13 -38l-212 -70l-13 36zM211 954l13 -38l-212 -70l-13 36z" />
    <glyph glyph-name="lilah" unicode="&#xfedf;&#xfee0;&#x651;&#x670;&#xfeea;" horiz-adv-x="1419" arabic-form="isolated" 
d="M126 235c0 -23.333 4.66699 -45.833 14 -67.5s21.833 -40.834 37.5 -57.501s33.834 -30.167 54.501 -40.5s42.667 -15.5 66 -15.5c22.667 0 44.5 5.16699 65.5 15.5s39.333 23.833 55 40.5s28.167 35.834 37.5 57.501s14 44.167 14 67.5c0 22.667 -4.66699 44.5 -14 65.5
s-21.833 39.5 -37.5 55.5s-34 28.833 -55 38.5s-42.833 14.5 -65.5 14.5c-23.333 0 -45.333 -4.83301 -66 -14.5s-38.834 -22.5 -54.501 -38.5s-28.167 -34.5 -37.5 -55.5s-14 -42.833 -14 -65.5zM545 199c0.666992 -8 3.66699 -19.4971 9 -34.4971s13.333 -29.667 24 -44
s24.167 -26.833 40.5 -37.5s36.166 -16 59.499 -16h23v-67h-20c-16.667 0 -33.667 3.16699 -51 9.5s-33.833 14.666 -49.5 24.999s-29.834 22.333 -42.501 36s-22.334 27.5 -29.001 41.5c-22 -36 -51.333 -65 -88 -87s-77 -33 -121 -33c-33.333 0 -64.666 6.5 -93.999 19.5
s-55.333 30.833 -78 53.5s-40.5 48.667 -53.5 78s-19.5 60.666 -19.5 93.999c0 32.667 6.5 63.667 19.5 93s30.833 54.666 53.5 75.999s48.667 38.333 78 51s60.666 19 93.999 19c32.667 0 63.834 -6.33301 93.501 -19s55.834 -29.667 78.501 -51s40.5 -46.666 53.5 -75.999
s19.5 -60.333 19.5 -93c0 -7.33301 -0.166992 -13.833 -0.5 -19.5s-0.166016 -11.834 0.500977 -18.501zM736 67.0029c28 0 51.3359 5.00195 70.0029 15.002s33.5 23.333 44.5 40s18.833 36.167 23.5 58.5s7 45.5 7 69.5l-1 494h72v-530c0 -42 12.167 -76.833 36.5 -104.5
s58.166 -41.834 101.499 -42.501h44v-67h-41c-16.667 0 -33.667 3.16699 -51 9.5s-33.833 14.666 -49.5 24.999s-29.834 22.333 -42.501 36s-22.334 27.5 -29.001 41.5c-15.333 -34 -38 -61.167 -68 -81.5s-68 -30.5 -114 -30.5h-57v67h54zM1119 67.0049h48
c46 0 78.333 10.5 97 31.5s28 52.5 28 94.5v551h72v-551c0 -63.333 -16.167 -111.333 -48.5 -144s-75.833 -49 -130.5 -49h-66v67z" />
    <glyph glyph-name="lamalefmaddaaboveiso" unicode="&#xfedf;&#xfe82;" horiz-adv-x="692" arabic-form="isolated" 
d="M75 67h201v479h71v-479h73c46 0 78.333 10.5 97 31.5s28 52.5 28 94.5v551h72v-551c0 -63.333 -16.167 -111.333 -48.5 -144s-75.833 -49 -130.5 -49h-363v67zM107 728l54.9971 -0.000976562v-37c0 -13.333 4.66699 -24.666 14 -33.999s20.666 -14 33.999 -14
c11.333 0 23.333 3.33301 36 10l40.5 22c14.333 8 29.5 15.333 45.5 22s33 10 51 10c28.667 0 52.834 -9.66699 72.501 -29s29.5 -43.666 29.5 -72.999v-37h-54v37c0 13.333 -4.66699 24.666 -14 33.999s-20.666 14 -33.999 14c-11.333 0 -23.333 -3.33301 -36 -10
l-40.5 -22c-14.333 -8 -29.5 -15.333 -45.5 -22s-33.333 -10 -52 -10c-14 0 -27.167 2.66699 -39.5 8s-23.166 12.5 -32.499 21.5s-16.666 19.667 -21.999 32s-8 25.833 -8 40.5v37z" />
    <glyph glyph-name="lamalefmaddaabovefina" unicode="&#xfee0;&#xfe82;" horiz-adv-x="789" arabic-form="final" 
d="M347 67l53.0029 0.00195312c28 0 51.333 5 70 15s33.5 23.333 44.5 40s18.833 36.167 23.5 58.5s7 45.5 7 69.5l-1 494h72v-530c0 -42 12.167 -76.833 36.5 -104.5s58.166 -41.834 101.499 -42.501h44v-67h-41c-16.667 0 -33.667 3.16699 -51 9.5
s-33.833 14.666 -49.5 24.999s-29.834 22.333 -42.501 36s-22.334 27.5 -29.001 41.5c-15.333 -34 -38 -61.167 -68 -81.5s-68 -30.5 -114 -30.5h-27h-301v67h201v479h71v-479zM93.0029 728.002l54.9971 -0.000976562v-37c0 -13.333 4.66699 -24.666 14 -33.999
s20.666 -14 33.999 -14c11.333 0 23.333 3.33301 36 10l40.5 22c14.333 8 29.5 15.333 45.5 22s33 10 51 10c28.667 0 52.834 -9.66699 72.501 -29s29.5 -43.666 29.5 -72.999v-37h-54v37c0 13.333 -4.66699 24.666 -14 33.999s-20.666 14 -33.999 14
c-11.333 0 -23.333 -3.33301 -36 -10l-40.5 -22c-14.333 -8 -29.5 -15.333 -45.5 -22s-33.333 -10 -52 -10c-14 0 -27.167 2.66699 -39.5 8s-23.166 12.5 -32.499 21.5s-16.666 19.667 -21.999 32s-8 25.833 -8 40.5v37z" />
    <glyph glyph-name="lamalefhamzaaboveiso" unicode="&#xfedf;&#xfe84;" horiz-adv-x="692" arabic-form="isolated" 
d="M75 67h201v479h71v-479h73c46 0 78.333 10.5 97 31.5s28 52.5 28 94.5v551h72v-551c0 -63.333 -16.167 -111.333 -48.5 -144s-75.833 -49 -130.5 -49h-363v67zM201 636l46.001 -0.000976562c-7.33301 7.33301 -12.333 14.666 -15 21.999s-4 17.666 -4 30.999
c0 12.667 2.5 24.5 7.5 35.5s11.667 20.667 20 29s18.166 14.833 29.499 19.5s23.333 7 36 7c15.333 0 29.5 -3.16699 42.5 -9.5s24.167 -15.166 33.5 -26.499l-32 -20c-5.33301 6 -11 9.83301 -17 11.5s-12.333 2.83398 -19 3.50098c-14 0.666992 -26.5 -3.5 -37.5 -12.5
s-16.5 -21.167 -16.5 -36.5s6.5 -28.166 19.5 -38.499s28.167 -15.5 45.5 -15.5h55v-42h-194v42z" />
    <glyph glyph-name="lamalefhamzaabovefina" unicode="&#xfee0;&#xfe84;" horiz-adv-x="789" arabic-form="final" 
d="M347 67l53.0029 0.00195312c28 0 51.333 5 70 15s33.5 23.333 44.5 40s18.833 36.167 23.5 58.5s7 45.5 7 69.5l-1 494h72v-530c0 -42 12.167 -76.833 36.5 -104.5s58.166 -41.834 101.499 -42.501h44v-67h-41c-16.667 0 -33.667 3.16699 -51 9.5
s-33.833 14.666 -49.5 24.999s-29.834 22.333 -42.501 36s-22.334 27.5 -29.001 41.5c-15.333 -34 -38 -61.167 -68 -81.5s-68 -30.5 -114 -30.5h-27h-301v67h201v479h71v-479zM201.003 636.002l46.001 -0.000976562c-7.33301 7.33301 -12.333 14.666 -15 21.999
s-4 17.666 -4 30.999c0 12.667 2.5 24.5 7.5 35.5s11.667 20.667 20 29s18.166 14.833 29.499 19.5s23.333 7 36 7c15.333 0 29.5 -3.16699 42.5 -9.5s24.167 -15.166 33.5 -26.499l-32 -20c-5.33301 6 -11 9.83301 -17 11.5s-12.333 2.83398 -19 3.50098
c-14 0.666992 -26.5 -3.5 -37.5 -12.5s-16.5 -21.167 -16.5 -36.5s6.5 -28.166 19.5 -38.499s28.167 -15.5 45.5 -15.5h55v-42h-194v42z" />
    <glyph glyph-name="lamalefhamzabelowiso" unicode="&#xfedf;&#xfe88;" horiz-adv-x="692" arabic-form="isolated" 
d="M75 67h201v479h71v-479h73c46 0 78.333 10.5 97 31.5s28 52.5 28 94.5v551h72v-551c0 -63.333 -16.167 -111.333 -48.5 -144s-75.833 -49 -130.5 -49h-363v67zM197 -196l46.001 -0.000976562c-7.33301 7.33301 -12.333 14.666 -15 21.999s-4 17.666 -4 30.999
c0 12.667 2.5 24.5 7.5 35.5s11.667 20.667 20 29s18.166 14.833 29.499 19.5s23.333 7 36 7c15.333 0 29.5 -3.16699 42.5 -9.5s24.167 -15.166 33.5 -26.499l-32 -20c-5.33301 6 -11 9.83301 -17 11.5s-12.333 2.83398 -19 3.50098c-14 0.666992 -26.5 -3.5 -37.5 -12.5
s-16.5 -21.167 -16.5 -36.5s6.5 -28.166 19.5 -38.499s28.167 -15.5 45.5 -15.5h55v-42h-194v42z" />
    <glyph glyph-name="lamalefhamzabelowfina" unicode="&#xfee0;&#xfe88;" horiz-adv-x="789" arabic-form="final" 
d="M347 67l53.0029 0.00195312c28 0 51.333 5 70 15s33.5 23.333 44.5 40s18.833 36.167 23.5 58.5s7 45.5 7 69.5l-1 494h72v-530c0 -42 12.167 -76.833 36.5 -104.5s58.166 -41.834 101.499 -42.501h44v-67h-41c-16.667 0 -33.667 3.16699 -51 9.5
s-33.833 14.666 -49.5 24.999s-29.834 22.333 -42.501 36s-22.334 27.5 -29.001 41.5c-15.333 -34 -38 -61.167 -68 -81.5s-68 -30.5 -114 -30.5h-27h-301v67h201v479h71v-479zM197.003 -195.998l46.001 -0.000976562c-7.33301 7.33301 -12.333 14.666 -15 21.999
s-4 17.666 -4 30.999c0 12.667 2.5 24.5 7.5 35.5s11.667 20.667 20 29s18.166 14.833 29.499 19.5s23.333 7 36 7c15.333 0 29.5 -3.16699 42.5 -9.5s24.167 -15.166 33.5 -26.499l-32 -20c-5.33301 6 -11 9.83301 -17 11.5s-12.333 2.83398 -19 3.50098
c-14 0.666992 -26.5 -3.5 -37.5 -12.5s-16.5 -21.167 -16.5 -36.5s6.5 -28.166 19.5 -38.499s28.167 -15.5 45.5 -15.5h55v-42h-194v42z" />
    <glyph glyph-name="lamalefiso" unicode="&#xfedf;&#xfe8e;" horiz-adv-x="692" arabic-form="isolated" 
d="M75 67h201v479h71v-479h73c46 0 78.333 10.5 97 31.5s28 52.5 28 94.5v551h72v-551c0 -63.333 -16.167 -111.333 -48.5 -144s-75.833 -49 -130.5 -49h-363v67z" />
    <glyph glyph-name="lamaleffina" unicode="&#xfee0;&#xfe8e;" horiz-adv-x="789" arabic-form="final" 
d="M347 67l53.0029 0.00195312c28 0 51.333 5 70 15s33.5 23.333 44.5 40s18.833 36.167 23.5 58.5s7 45.5 7 69.5l-1 494h72v-530c0 -42 12.167 -76.833 36.5 -104.5s58.166 -41.834 101.499 -42.501h44v-67h-41c-16.667 0 -33.667 3.16699 -51 9.5
s-33.833 14.666 -49.5 24.999s-29.834 22.333 -42.501 36s-22.334 27.5 -29.001 41.5c-15.333 -34 -38 -61.167 -68 -81.5s-68 -30.5 -114 -30.5h-27h-301v67h201v479h71v-479z" />
    <glyph glyph-name="shaddahfathatan" unicode="&#x651;&#x64b;" 
d="M197 890l32 -0.000976562v-49c0 -23.333 -5.83301 -41.166 -17.5 -53.499s-27.5 -18.5 -47.5 -18.5c-21.333 0 -37.666 6.66699 -48.999 20c-11.333 -13.333 -27.666 -20 -48.999 -20c-20 0 -35.833 6 -47.5 18s-17.5 29.667 -17.5 53v50h32v-49
c0 -12.667 2.66699 -22.667 8 -30s13.666 -11 24.999 -11c10 0 18 3.83301 24 11.5s9 17.167 9 28.5v50h32v-49c0 -12.667 2.66699 -22.667 8 -30s13.666 -11 24.999 -11c10 0 18 3.83301 24 11.5s9 17.167 9 28.5v50zM214 1096l13 -38l-212 -70l-13 36zM214 1012l13 -38
l-212 -70l-13 36z" />
    <glyph glyph-name="hamza" unicode="&#x621;" horiz-adv-x="496" arabic-form="isolated" 
d="M55 67l95.9971 0.000976562c-15.333 11.333 -26.333 25.666 -33 42.999s-10 40 -10 68c0 24.667 4.83301 47.834 14.5 69.501s22.834 40.667 39.501 57s36.167 29.166 58.5 38.499s45.833 14 70.5 14c30.667 0 59 -6.83301 85 -20.5s47.667 -32.167 65 -55.5l-59 -27
c-23.333 21.333 -54 32 -92 32c-17.333 0 -32.666 -3 -45.999 -9s-24.666 -14 -33.999 -24s-16.333 -21.667 -21 -35s-7 -27.333 -7 -42c0 -14 3.33301 -27.667 10 -41s15.667 -25 27 -35s24.5 -18 39.5 -24s31.167 -9 48.5 -9h131v-67h-383v67z" />
    <glyph glyph-name="alefmaddaaboveiso" unicode="&#x622;" horiz-adv-x="221" arabic-form="isolated" 
d="M75 744h71v-744h-71v744zM-116 919h60v-41c0 -15.333 5.16699 -27.833 15.5 -37.5s22.833 -14.5 37.5 -14.5c12 0 26.833 4 44.5 12l57 26c20.333 9.33301 41 18 62 26s41.167 12 60.5 12c32 0 58.667 -10.667 80 -32s32 -48 32 -80v-41h-59v41
c0 15.333 -5.16699 28 -15.5 38s-22.833 15 -37.5 15c-12.667 0 -27.667 -4 -45 -12l-56 -26.5c-20 -9.66699 -40.667 -18.5 -62 -26.5s-42 -12 -62 -12c-15.333 0 -29.833 2.83301 -43.5 8.5s-25.5 13.5 -35.5 23.5s-18 21.833 -24 35.5s-9 28.5 -9 44.5v41z" />
    <glyph glyph-name="alefhamzaaboveiso" unicode="&#x623;" horiz-adv-x="221" arabic-form="isolated" 
d="M75 744h71v-744h-71v744zM11 840l46.001 -0.000976562c-7.33301 7.33301 -12.333 14.666 -15 21.999s-4 17.666 -4 30.999c0 12.667 2.5 24.5 7.5 35.5s11.667 20.667 20 29s18.166 14.833 29.499 19.5s23.333 7 36 7c15.333 0 29.5 -3.16699 42.5 -9.5
s24.167 -15.166 33.5 -26.499l-32 -20c-5.33301 6 -11 9.83301 -17 11.5s-12.333 2.83398 -19 3.50098c-14 0.666992 -26.5 -3.5 -37.5 -12.5s-16.5 -21.167 -16.5 -36.5s6.5 -28.166 19.5 -38.499s28.167 -15.5 45.5 -15.5h55v-42h-194v42z" />
    <glyph glyph-name="wawhamzaiso" unicode="&#x624;" horiz-adv-x="550" arabic-form="isolated" 
d="M285 401c-23.333 0 -45 -4.33398 -65 -13.001s-37.5 -20.5 -52.5 -35.5s-26.833 -32.667 -35.5 -53s-13 -41.833 -13 -64.5c0 -23.333 4.33301 -45.166 13 -65.499s20.5 -38 35.5 -53s32.5 -27 52.5 -36s41.667 -13.5 65 -13.5h119v201c0 44 -9.5 77.167 -28.5 99.5
s-49.167 33.5 -90.5 33.5zM475 -0.000976562c-2 -37.333 -10.3311 -70.668 -24.998 -100.001s-34 -54.333 -58 -75s-51.833 -36.5 -83.5 -47.5s-65.167 -16.5 -100.5 -16.5c-28.667 0 -60 4 -94 12l18 59c25.333 -5.33301 50.333 -8 75 -8
c27.333 0 52.833 3.83301 76.5 11.5s44.167 19 61.5 34s31.166 33.5 41.499 55.5s16.166 47 17.499 75h-117c-33.333 0 -64.5 5.83301 -93.5 17.5s-54.167 28 -75.5 49s-38.333 45.5 -51 73.5s-19 58.667 -19 92c0 32.667 6.33301 63.5 19 92.5s29.667 54 51 75
s46.5 37.667 75.5 50s60.167 18.5 93.5 18.5c32.667 0 61 -5.33301 85 -16s43.5 -25 58.5 -43s26.167 -39.167 33.5 -63.5s11 -50.166 11 -77.499v-201v-67zM158.217 594.62h55.8564c-8.90527 8.91016 -14.9766 17.8203 -18.2148 26.7305
c-3.2373 8.91016 -4.85645 21.4658 -4.85645 37.666c0 15.3896 3.03613 29.7676 9.10742 43.1328s14.166 25.1104 24.2852 35.2363c10.1191 10.125 22.0596 18.0225 35.8223 23.6924c13.7617 5.66992 28.333 8.50488 43.7139 8.50488
c18.6201 0 35.8232 -3.84766 51.6094 -11.542c15.7861 -7.69531 29.3457 -18.4277 40.6787 -32.1982l-38.8574 -24.3008c-6.47656 7.29004 -13.3574 11.9473 -20.6436 13.9717c-7.28613 2.02539 -14.9766 3.44336 -23.0713 4.25293
c-17 0.80957 -32.1787 -4.25293 -45.5361 -15.1885c-13.3574 -10.9346 -20.0361 -25.7168 -20.0361 -44.3467c0 -18.6309 7.89258 -34.2236 23.6787 -46.7793c15.7861 -12.5547 34.2031 -18.832 55.251 -18.832h66.7861v-51.0312h-235.573v51.0312z" />
    <glyph glyph-name="alefhamzabelowiso" unicode="&#x625;" horiz-adv-x="221" arabic-form="isolated" 
d="M75 744h71v-744h-71v744zM10 -196l46.001 -0.000976562c-7.33301 7.33301 -12.333 14.666 -15 21.999s-4 17.666 -4 30.999c0 12.667 2.5 24.5 7.5 35.5s11.667 20.667 20 29s18.166 14.833 29.499 19.5s23.333 7 36 7c15.333 0 29.5 -3.16699 42.5 -9.5
s24.167 -15.166 33.5 -26.499l-32 -20c-5.33301 6 -11 9.83301 -17 11.5s-12.333 2.83398 -19 3.50098c-14 0.666992 -26.5 -3.5 -37.5 -12.5s-16.5 -21.167 -16.5 -36.5s6.5 -28.166 19.5 -38.499s28.167 -15.5 45.5 -15.5h55v-42h-194v42z" />
    <glyph glyph-name="hamzakirsehiso" unicode="&#x626;" horiz-adv-x="900" arabic-form="isolated" 
d="M851 345c-7.33301 8 -15.5029 16.1641 -24.5029 24.4971s-19.333 15.833 -31 22.5s-24.167 11.667 -37.5 15s-27.333 4.66602 -42 3.99902c-35.333 -2.66699 -55.666 -13.334 -60.999 -32.001s0.666992 -42 18 -70l92 -151c15.333 -25.333 21.5 -52.166 18.5 -80.499
s-12.5 -54.166 -28.5 -77.499s-37.167 -42.666 -63.5 -57.999s-55.5 -23 -87.5 -23h-264c-46 0.666992 -86.667 8.66699 -122 24s-65 36.5 -89 63.5s-42.167 58.833 -54.5 95.5s-18.5 77 -18.5 121v23h72v-17c0 -35.333 4.33301 -67.833 13 -97.5
s21.834 -55.334 39.501 -77.001s39.834 -38.5 66.501 -50.5s57.667 -18 93 -18h268c17.333 0 33.833 4.66699 49.5 14s28.5 20.833 38.5 34.5s16.667 28.334 20 44.001s1 30.167 -7 43.5l-102 172c-14.667 24.667 -21.5 48 -20.5 70s7.83301 41.333 20.5 58
s29.667 29.834 51 39.501s45 14.5 71 14.5c12 0 25.5 -2 40.5 -6s30.5 -10.167 46.5 -18.5s31.833 -19.166 47.5 -32.499s29.5 -29 41.5 -47zM128.212 350.62h55.8564c-8.90527 8.91016 -14.9766 17.8203 -18.2148 26.7305
c-3.2373 8.91016 -4.85645 21.4658 -4.85645 37.666c0 15.3896 3.03613 29.7676 9.10742 43.1328s14.166 25.1104 24.2852 35.2363c10.1191 10.125 22.0596 18.0225 35.8223 23.6924c13.7617 5.66992 28.333 8.50488 43.7139 8.50488
c18.6201 0 35.8232 -3.84766 51.6094 -11.542c15.7861 -7.69531 29.3457 -18.4277 40.6787 -32.1982l-38.8574 -24.3008c-6.47656 7.29004 -13.3574 11.9473 -20.6436 13.9717c-7.28613 2.02539 -14.9766 3.44336 -23.0713 4.25293
c-17 0.80957 -32.1787 -4.25293 -45.5361 -15.1885c-13.3574 -10.9346 -20.0361 -25.7168 -20.0361 -44.3467c0 -18.6309 7.89258 -34.2236 23.6787 -46.7793c15.7861 -12.5547 34.2031 -18.832 55.251 -18.832h66.7861v-51.0312h-235.573v51.0312z" />
    <glyph glyph-name="alefiso" unicode="&#x627;" horiz-adv-x="221" arabic-form="isolated" 
d="M75 744h71v-744h-71v744z" />
    <glyph glyph-name="behiso" unicode="&#x628;" horiz-adv-x="941" arabic-form="isolated" 
d="M359 0c-46 0.666992 -86.6709 8.66699 -122.004 24s-65 36.5 -89 63.5s-42.167 58.833 -54.5 95.5s-18.5 77 -18.5 121v104h72v-98c0 -35.333 4.33301 -67.833 13 -97.5s21.834 -55.334 39.501 -77.001s39.834 -38.5 66.501 -50.5s57.667 -18 93 -18h243
c35.333 0 66.333 6 93 18s48.834 28.833 66.501 50.5s30.834 47.334 39.501 77.001s13 62.167 13 97.5v98h72v-104c0 -44 -6.16699 -84.5 -18.5 -121.5s-30.5 -69 -54.5 -96s-53.667 -48.167 -89 -63.5s-76 -23 -122 -23h-243zM412.996 -134
c0 13.333 4.66699 24.666 14 33.999s20.666 14 33.999 14s24.666 -4.66699 33.999 -14s14 -20.666 14 -33.999s-4.66699 -24.666 -14 -33.999s-20.666 -14 -33.999 -14s-24.666 4.66699 -33.999 14s-14 20.666 -14 33.999z" />
    <glyph glyph-name="tehmarboutaiso" unicode="&#x629;" horiz-adv-x="600" arabic-form="isolated" 
d="M55 237c0 32.667 6.5 63.667 19.5 93s30.833 54.666 53.5 75.999s48.667 38.333 78 51s60.666 19 93.999 19c32.667 0 63.834 -6.33301 93.501 -19s55.834 -29.667 78.501 -51s40.5 -46.666 53.5 -75.999s19.5 -60.333 19.5 -93c0 -33.333 -6.5 -64.666 -19.5 -93.999
s-30.833 -55.333 -53.5 -78s-48.834 -40.5 -78.501 -53.5s-60.834 -19.5 -93.501 -19.5c-33.333 0 -64.666 6.5 -93.999 19.5s-55.333 30.833 -78 53.5s-40.5 48.667 -53.5 78s-19.5 60.666 -19.5 93.999zM126 235c0 -23.333 4.66699 -45.833 14 -67.5
s21.833 -40.834 37.5 -57.501s33.834 -30.167 54.501 -40.5s42.667 -15.5 66 -15.5c22.667 0 44.5 5.16699 65.5 15.5s39.333 23.833 55 40.5s28.167 35.834 37.5 57.501s14 44.167 14 67.5c0 22.667 -4.66699 44.5 -14 65.5s-21.833 39.5 -37.5 55.5s-34 28.833 -55 38.5
s-42.833 14.5 -65.5 14.5c-23.333 0 -45.333 -4.83301 -66 -14.5s-38.834 -22.5 -54.501 -38.5s-28.167 -34.5 -37.5 -55.5s-14 -42.833 -14 -65.5zM181 612c0 13.333 4.66699 24.666 14 33.999s20.666 14 33.999 14s24.666 -4.66699 33.999 -14s14 -20.666 14 -33.999
s-4.66699 -24.666 -14 -33.999s-20.666 -14 -33.999 -14s-24.666 4.66699 -33.999 14s-14 20.666 -14 33.999zM325 612c0 13.333 4.66699 24.666 14 33.999s20.666 14 33.999 14s24.666 -4.66699 33.999 -14s14 -20.666 14 -33.999s-4.66699 -24.666 -14 -33.999
s-20.666 -14 -33.999 -14s-24.666 4.66699 -33.999 14s-14 20.666 -14 33.999z" />
    <glyph glyph-name="taiso" unicode="&#x62a;" horiz-adv-x="941" arabic-form="isolated" 
d="M359 0c-46 0.666992 -86.6709 8.66699 -122.004 24s-65 36.5 -89 63.5s-42.167 58.833 -54.5 95.5s-18.5 77 -18.5 121v104h72v-98c0 -35.333 4.33301 -67.833 13 -97.5s21.834 -55.334 39.501 -77.001s39.834 -38.5 66.501 -50.5s57.667 -18 93 -18h243
c35.333 0 66.333 6 93 18s48.834 28.833 66.501 50.5s30.834 47.334 39.501 77.001s13 62.167 13 97.5v98h72v-104c0 -44 -6.16699 -84.5 -18.5 -121.5s-30.5 -69 -54.5 -96s-53.667 -48.167 -89 -63.5s-76 -23 -122 -23h-243zM352.996 612
c0 13.333 4.66699 24.666 14 33.999s20.666 14 33.999 14s24.666 -4.66699 33.999 -14s14 -20.666 14 -33.999s-4.66699 -24.666 -14 -33.999s-20.666 -14 -33.999 -14s-24.666 4.66699 -33.999 14s-14 20.666 -14 33.999zM496.996 612c0 13.333 4.66699 24.666 14 33.999
s20.666 14 33.999 14s24.666 -4.66699 33.999 -14s14 -20.666 14 -33.999s-4.66699 -24.666 -14 -33.999s-20.666 -14 -33.999 -14s-24.666 4.66699 -33.999 14s-14 20.666 -14 33.999z" />
    <glyph glyph-name="thaiso" unicode="&#x62b;" horiz-adv-x="941" arabic-form="isolated" 
d="M359 0c-46 0.666992 -86.6709 8.66699 -122.004 24s-65 36.5 -89 63.5s-42.167 58.833 -54.5 95.5s-18.5 77 -18.5 121v104h72v-98c0 -35.333 4.33301 -67.833 13 -97.5s21.834 -55.334 39.501 -77.001s39.834 -38.5 66.501 -50.5s57.667 -18 93 -18h243
c35.333 0 66.333 6 93 18s48.834 28.833 66.501 50.5s30.834 47.334 39.501 77.001s13 62.167 13 97.5v98h72v-104c0 -44 -6.16699 -84.5 -18.5 -121.5s-30.5 -69 -54.5 -96s-53.667 -48.167 -89 -63.5s-76 -23 -122 -23h-243zM421.996 730
c0 13.333 4.66699 24.666 14 33.999s20.666 14 33.999 14s24.666 -4.66699 33.999 -14s14 -20.666 14 -33.999s-4.66699 -24.666 -14 -33.999s-20.666 -14 -33.999 -14s-24.666 4.66699 -33.999 14s-14 20.666 -14 33.999zM351.996 610c0 13.333 4.66699 24.666 14 33.999
s20.666 14 33.999 14s24.666 -4.66699 33.999 -14s14 -20.666 14 -33.999s-4.66699 -24.666 -14 -33.999s-20.666 -14 -33.999 -14s-24.666 4.66699 -33.999 14s-14 20.666 -14 33.999zM495.996 610c0 13.333 4.66699 24.666 14 33.999s20.666 14 33.999 14
s24.666 -4.66699 33.999 -14s14 -20.666 14 -33.999s-4.66699 -24.666 -14 -33.999s-20.666 -14 -33.999 -14s-24.666 4.66699 -33.999 14s-14 20.666 -14 33.999z" />
    <glyph glyph-name="jeemiso" unicode="&#x62c;" horiz-adv-x="674" arabic-form="isolated" 
d="M619 95h-269h2c-28 0 -53.333 -3 -76 -9s-42.334 -15.5 -59.001 -28.5s-29.5 -29.5 -38.5 -49.5s-13.5 -44 -13.5 -72s4.5 -52 13.5 -72s21.833 -36.5 38.5 -49.5s36.334 -22.5 59.001 -28.5s48 -9 76 -9c35.333 0 66.333 4.66699 93 14s48 24.333 64 45l50 -45
c-22.667 -27.333 -51.667 -47.666 -87 -60.999s-75.333 -20 -120 -20c-37.333 0 -71.5 4.83301 -102.5 14.5s-57.667 24 -80 43s-39.833 42.5 -52.5 70.5s-19 60.667 -19 98s6.33301 70 19 98s30.167 51.5 52.5 70.5s49 33.333 80 43s65.167 14.5 102.5 14.5h199l-2 12
c-0.666992 3.33301 -1 6.83301 -1 10.5v10.5v50c0 28 -5.33301 54.333 -16 79s-25.167 46.167 -43.5 64.5s-39.833 32.833 -64.5 43.5s-51 16 -79 16s-54.167 -5.16699 -78.5 -15.5s-45.833 -24.833 -64.5 -43.5l-45 49c24.667 24 53 42.833 85 56.5s66.333 20.5 103 20.5
c37.333 0 72.5 -7 105.5 -21s62 -33.333 87 -58s44.833 -53.334 59.5 -86.001s22 -67.667 22 -105v-150zM329 -46c0 13.333 4.66699 24.666 14 33.999s20.666 14 33.999 14s24.666 -4.66699 33.999 -14s14 -20.666 14 -33.999s-4.66699 -24.666 -14 -33.999
s-20.666 -14 -33.999 -14s-24.666 4.66699 -33.999 14s-14 20.666 -14 33.999z" />
    <glyph glyph-name="haaiso" unicode="&#x62d;" horiz-adv-x="674" arabic-form="isolated" 
d="M619 95h-269h2c-28 0 -53.333 -3 -76 -9s-42.334 -15.5 -59.001 -28.5s-29.5 -29.5 -38.5 -49.5s-13.5 -44 -13.5 -72s4.5 -52 13.5 -72s21.833 -36.5 38.5 -49.5s36.334 -22.5 59.001 -28.5s48 -9 76 -9c35.333 0 66.333 4.66699 93 14s48 24.333 64 45l50 -45
c-22.667 -27.333 -51.667 -47.666 -87 -60.999s-75.333 -20 -120 -20c-37.333 0 -71.5 4.83301 -102.5 14.5s-57.667 24 -80 43s-39.833 42.5 -52.5 70.5s-19 60.667 -19 98s6.33301 70 19 98s30.167 51.5 52.5 70.5s49 33.333 80 43s65.167 14.5 102.5 14.5h199l-2 12
c-0.666992 3.33301 -1 6.83301 -1 10.5v10.5v50c0 28 -5.33301 54.333 -16 79s-25.167 46.167 -43.5 64.5s-39.833 32.833 -64.5 43.5s-51 16 -79 16s-54.167 -5.16699 -78.5 -15.5s-45.833 -24.833 -64.5 -43.5l-45 49c24.667 24 53 42.833 85 56.5s66.333 20.5 103 20.5
c37.333 0 72.5 -7 105.5 -21s62 -33.333 87 -58s44.833 -53.334 59.5 -86.001s22 -67.667 22 -105v-150z" />
    <glyph glyph-name="khaiso" unicode="&#x62e;" horiz-adv-x="674" arabic-form="isolated" 
d="M619 95h-269h2c-28 0 -53.333 -3 -76 -9s-42.334 -15.5 -59.001 -28.5s-29.5 -29.5 -38.5 -49.5s-13.5 -44 -13.5 -72s4.5 -52 13.5 -72s21.833 -36.5 38.5 -49.5s36.334 -22.5 59.001 -28.5s48 -9 76 -9c35.333 0 66.333 4.66699 93 14s48 24.333 64 45l50 -45
c-22.667 -27.333 -51.667 -47.666 -87 -60.999s-75.333 -20 -120 -20c-37.333 0 -71.5 4.83301 -102.5 14.5s-57.667 24 -80 43s-39.833 42.5 -52.5 70.5s-19 60.667 -19 98s6.33301 70 19 98s30.167 51.5 52.5 70.5s49 33.333 80 43s65.167 14.5 102.5 14.5h199l-2 12
c-0.666992 3.33301 -1 6.83301 -1 10.5v10.5v50c0 28 -5.33301 54.333 -16 79s-25.167 46.167 -43.5 64.5s-39.833 32.833 -64.5 43.5s-51 16 -79 16s-54.167 -5.16699 -78.5 -15.5s-45.833 -24.833 -64.5 -43.5l-45 49c24.667 24 53 42.833 85 56.5s66.333 20.5 103 20.5
c37.333 0 72.5 -7 105.5 -21s62 -33.333 87 -58s44.833 -53.334 59.5 -86.001s22 -67.667 22 -105v-150zM318 643c0 13.333 4.66699 24.666 14 33.999s20.666 14 33.999 14s24.666 -4.66699 33.999 -14s14 -20.666 14 -33.999s-4.66699 -24.666 -14 -33.999
s-20.666 -14 -33.999 -14s-24.666 4.66699 -33.999 14s-14 20.666 -14 33.999z" />
    <glyph glyph-name="daliso" unicode="&#x62f;" horiz-adv-x="569" arabic-form="isolated" 
d="M513 0l-428.001 -0.000976562v67h358v131c0 28 -5.16699 54.333 -15.5 79s-24.333 46.334 -42 65.001s-38.667 33.334 -63 44.001s-50.5 16 -78.5 16h-30v66h30c37.333 0 72.333 -7 105 -21s61.334 -33.333 86.001 -58s44 -53.334 58 -86.001s21 -67.667 21 -105z" />
    <glyph glyph-name="zaliso" unicode="&#x630;" horiz-adv-x="569" arabic-form="isolated" 
d="M513 0l-428.001 -0.000976562v67h358v131c0 28 -5.16699 54.333 -15.5 79s-24.333 46.334 -42 65.001s-38.667 33.334 -63 44.001s-50.5 16 -78.5 16h-30v66h30c37.333 0 72.333 -7 105 -21s61.334 -33.333 86.001 -58s44 -53.334 58 -86.001s21 -67.667 21 -105z
M241.999 611.999c0 13.333 4.66699 24.666 14 33.999s20.666 14 33.999 14s24.666 -4.66699 33.999 -14s14 -20.666 14 -33.999s-4.66699 -24.666 -14 -33.999s-20.666 -14 -33.999 -14s-24.666 4.66699 -33.999 14s-14 20.666 -14 33.999z" />
    <glyph glyph-name="raiso" unicode="&#x631;" horiz-adv-x="341" arabic-form="isolated" 
d="M212 408l70.999 0.000976562v-394c0 -39.333 -7 -74.5 -21 -105.5s-33.167 -57.333 -57.5 -79s-52.666 -38.334 -84.999 -50.001s-66.833 -17.5 -103.5 -17.5c-28.667 0 -60 4 -94 12l18 59c25.333 -5.33301 50.333 -8 75 -8c28.667 0 55 4 79 12s44.667 20 62 36
s31 35.667 41 59s15 50 15 80v396z" />
    <glyph glyph-name="zaiso" unicode="&#x632;" horiz-adv-x="341" arabic-form="isolated" 
d="M212 408l70.999 0.000976562v-394c0 -39.333 -7 -74.5 -21 -105.5s-33.167 -57.333 -57.5 -79s-52.666 -38.334 -84.999 -50.001s-66.833 -17.5 -103.5 -17.5c-28.667 0 -60 4 -94 12l18 59c25.333 -5.33301 50.333 -8 75 -8c28.667 0 55 4 79 12s44.667 20 62 36
s31 35.667 41 59s15 50 15 80v396zM154.999 612.001c0 13.333 4.66699 24.666 14 33.999s20.666 14 33.999 14s24.666 -4.66699 33.999 -14s14 -20.666 14 -33.999s-4.66699 -24.666 -14 -33.999s-20.666 -14 -33.999 -14s-24.666 4.66699 -33.999 14s-14 20.666 -14 33.999
z" />
    <glyph glyph-name="seeniso" unicode="&#x633;" horiz-adv-x="1376" arabic-form="isolated" 
d="M572 408l71.999 0.00195312v-194c0 -20.667 2.5 -40 7.5 -58s12.667 -33.5 23 -46.5s23.5 -23.333 39.5 -31s34.667 -11.5 56 -11.5c28 0 51.167 5 69.5 15s32.666 23.333 42.999 40s17.5 36.167 21.5 58.5s6 45.5 6 69.5l-1 158h72v-194c0 -20.667 3.33301 -40 10 -58
s16.334 -33.5 29.001 -46.5s27.834 -23.333 45.501 -31s37.167 -11.5 58.5 -11.5c46 0 78.333 10.5 97 31.5s28 52.5 28 94.5v215h72v-215c0 -63.333 -16.167 -111.333 -48.5 -144s-75.833 -49 -130.5 -49c-22.667 0 -44 3.16699 -64 9.5s-38.333 14.666 -55 24.999
s-31.334 22.333 -44.001 36s-22.334 27.5 -29.001 41.5c-15.333 -34 -37.166 -61.167 -65.499 -81.5s-65.5 -30.5 -111.5 -30.5c-30 0 -55.333 5.66699 -76 17s-38.334 25.666 -53.001 42.999c-0.666992 -43.333 -7.33398 -83 -20.001 -119s-31 -67 -55 -93
s-53.667 -46.333 -89 -61s-75.666 -22 -120.999 -22c-46 0.666992 -86.667 8.66699 -122 24s-65 36.5 -89 63.5s-42.167 58.833 -54.5 95.5s-18.5 77 -18.5 121v240h72v-234c0 -35.333 4.33301 -67.833 13 -97.5s21.834 -55.334 39.501 -77.001s39.834 -38.5 66.501 -50.5
s57.667 -18 93 -18s66.333 6 93 18s48.667 28.833 66 50.5s30.5 47.334 39.5 77.001s13.833 62.167 14.5 97.5v333z" />
    <glyph glyph-name="sheeniso" unicode="&#x634;" horiz-adv-x="1376" arabic-form="isolated" 
d="M572 408l71.999 0.00195312v-194c0 -20.667 2.5 -40 7.5 -58s12.667 -33.5 23 -46.5s23.5 -23.333 39.5 -31s34.667 -11.5 56 -11.5c28 0 51.167 5 69.5 15s32.666 23.333 42.999 40s17.5 36.167 21.5 58.5s6 45.5 6 69.5l-1 158h72v-194c0 -20.667 3.33301 -40 10 -58
s16.334 -33.5 29.001 -46.5s27.834 -23.333 45.501 -31s37.167 -11.5 58.5 -11.5c46 0 78.333 10.5 97 31.5s28 52.5 28 94.5v215h72v-215c0 -63.333 -16.167 -111.333 -48.5 -144s-75.833 -49 -130.5 -49c-22.667 0 -44 3.16699 -64 9.5s-38.333 14.666 -55 24.999
s-31.334 22.333 -44.001 36s-22.334 27.5 -29.001 41.5c-15.333 -34 -37.166 -61.167 -65.499 -81.5s-65.5 -30.5 -111.5 -30.5c-30 0 -55.333 5.66699 -76 17s-38.334 25.666 -53.001 42.999c-0.666992 -43.333 -7.33398 -83 -20.001 -119s-31 -67 -55 -93
s-53.667 -46.333 -89 -61s-75.666 -22 -120.999 -22c-46 0.666992 -86.667 8.66699 -122 24s-65 36.5 -89 63.5s-42.167 58.833 -54.5 95.5s-18.5 77 -18.5 121v240h72v-234c0 -35.333 4.33301 -67.833 13 -97.5s21.834 -55.334 39.501 -77.001s39.834 -38.5 66.501 -50.5
s57.667 -18 93 -18s66.333 6 93 18s48.667 28.833 66 50.5s30.5 47.334 39.5 77.001s13.833 62.167 14.5 97.5v333zM891.999 730.002c0 13.333 4.66699 24.666 14 33.999s20.666 14 33.999 14s24.666 -4.66699 33.999 -14s14 -20.666 14 -33.999
s-4.66699 -24.666 -14 -33.999s-20.666 -14 -33.999 -14s-24.666 4.66699 -33.999 14s-14 20.666 -14 33.999zM821.999 610.002c0 13.333 4.66699 24.666 14 33.999s20.666 14 33.999 14s24.666 -4.66699 33.999 -14s14 -20.666 14 -33.999s-4.66699 -24.666 -14 -33.999
s-20.666 -14 -33.999 -14s-24.666 4.66699 -33.999 14s-14 20.666 -14 33.999zM965.999 610.002c0 13.333 4.66699 24.666 14 33.999s20.666 14 33.999 14s24.666 -4.66699 33.999 -14s14 -20.666 14 -33.999s-4.66699 -24.666 -14 -33.999s-20.666 -14 -33.999 -14
s-24.666 4.66699 -33.999 14s-14 20.666 -14 33.999z" />
    <glyph glyph-name="sadiso" unicode="&#x635;" horiz-adv-x="1284" arabic-form="isolated" 
d="M571 408h71v-138l-5 -61h3c15.333 39.333 34.833 75.333 58.5 108s50.5 60.834 80.5 84.501s62.833 42 98.5 55s73.167 19.5 112.5 19.5c32.667 0 63.667 -6.5 93 -19.5s54.666 -30.667 75.999 -53s38.333 -48.333 51 -78s19 -60.834 19 -93.501
c0 -33.333 -6.33301 -64 -19 -92s-29.667 -52.5 -51 -73.5s-46.666 -37.333 -75.999 -49s-60.333 -17.5 -93 -17.5h-353c-6 -34.667 -16.333 -66.5 -31 -95.5s-33.667 -53.833 -57 -74.5s-50.833 -36.667 -82.5 -48s-67.5 -17 -107.5 -17
c-46 0.666992 -86.667 8.66699 -122 24s-65 36.5 -89 63.5s-42.167 58.833 -54.5 95.5s-18.5 77 -18.5 121v240h72v-234c0 -35.333 4.33301 -67.833 13 -97.5s21.834 -55.334 39.501 -77.001s39.834 -38.5 66.501 -50.5s57.667 -18 93 -18
c34.667 0 65.167 5.83301 91.5 17.5s48.166 27.834 65.499 48.501s30.666 45.5 39.999 74.5s14.333 60.5 15 94.5v341zM992 67c22.667 0 44.167 4.50098 64.5 13.501s38 21 53 36s26.833 32.667 35.5 53s13 42.166 13 65.499c0 22.667 -4.33301 44.5 -13 65.5
s-20.5 39.5 -35.5 55.5s-32.667 28.667 -53 38s-41.833 14.333 -64.5 15c-40.667 0.666992 -79 -7.83301 -115 -25.5s-68.667 -42 -98 -73s-54.833 -67.5 -76.5 -109.5s-38.5 -86.667 -50.5 -134h340z" />
    <glyph glyph-name="dadiso" unicode="&#x636;" horiz-adv-x="1284" arabic-form="isolated" 
d="M571 408h71v-138l-5 -61h3c15.333 39.333 34.833 75.333 58.5 108s50.5 60.834 80.5 84.501s62.833 42 98.5 55s73.167 19.5 112.5 19.5c32.667 0 63.667 -6.5 93 -19.5s54.666 -30.667 75.999 -53s38.333 -48.333 51 -78s19 -60.834 19 -93.501
c0 -33.333 -6.33301 -64 -19 -92s-29.667 -52.5 -51 -73.5s-46.666 -37.333 -75.999 -49s-60.333 -17.5 -93 -17.5h-353c-6 -34.667 -16.333 -66.5 -31 -95.5s-33.667 -53.833 -57 -74.5s-50.833 -36.667 -82.5 -48s-67.5 -17 -107.5 -17
c-46 0.666992 -86.667 8.66699 -122 24s-65 36.5 -89 63.5s-42.167 58.833 -54.5 95.5s-18.5 77 -18.5 121v240h72v-234c0 -35.333 4.33301 -67.833 13 -97.5s21.834 -55.334 39.501 -77.001s39.834 -38.5 66.501 -50.5s57.667 -18 93 -18
c34.667 0 65.167 5.83301 91.5 17.5s48.166 27.834 65.499 48.501s30.666 45.5 39.999 74.5s14.333 60.5 15 94.5v341zM992 67c22.667 0 44.167 4.50098 64.5 13.501s38 21 53 36s26.833 32.667 35.5 53s13 42.166 13 65.499c0 22.667 -4.33301 44.5 -13 65.5
s-20.5 39.5 -35.5 55.5s-32.667 28.667 -53 38s-41.833 14.333 -64.5 15c-40.667 0.666992 -79 -7.83301 -115 -25.5s-68.667 -42 -98 -73s-54.833 -67.5 -76.5 -109.5s-38.5 -86.667 -50.5 -134h340zM846 612.001c0 13.333 4.66699 24.666 14 33.999s20.666 14 33.999 14
s24.666 -4.66699 33.999 -14s14 -20.666 14 -33.999s-4.66699 -24.666 -14 -33.999s-20.666 -14 -33.999 -14s-24.666 4.66699 -33.999 14s-14 20.666 -14 33.999z" />
    <glyph glyph-name="tahiso" unicode="&#x637;" horiz-adv-x="879" arabic-form="isolated" 
d="M166 744h71v-474l-5 -61h3c15.333 39.333 34.833 75.333 58.5 108s50.5 60.834 80.5 84.501s62.833 42 98.5 55s73.167 19.5 112.5 19.5c32.667 0 63.667 -6.5 93 -19.5s54.666 -30.667 75.999 -53s38.333 -48.333 51 -78s19 -60.834 19 -93.501
c0 -33.333 -6.33301 -64 -19 -92s-29.667 -52.5 -51 -73.5s-46.666 -37.333 -75.999 -49s-60.333 -17.5 -93 -17.5h-510v67h91v677zM587 67c22.667 0 44.167 4.50098 64.5 13.501s38 21 53 36s26.833 32.667 35.5 53s13 42.166 13 65.499c0 22.667 -4.33301 44.5 -13 65.5
s-20.5 39.5 -35.5 55.5s-32.667 28.667 -53 38s-41.833 14.333 -64.5 15c-40.667 0.666992 -79 -7.83301 -115 -25.5s-68.667 -42 -98 -73s-54.833 -67.5 -76.5 -109.5s-38.5 -86.667 -50.5 -134h340z" />
    <glyph glyph-name="zadiso" unicode="&#x638;" horiz-adv-x="879" arabic-form="isolated" 
d="M166 744h71v-474l-5 -61h3c15.333 39.333 34.833 75.333 58.5 108s50.5 60.834 80.5 84.501s62.833 42 98.5 55s73.167 19.5 112.5 19.5c32.667 0 63.667 -6.5 93 -19.5s54.666 -30.667 75.999 -53s38.333 -48.333 51 -78s19 -60.834 19 -93.501
c0 -33.333 -6.33301 -64 -19 -92s-29.667 -52.5 -51 -73.5s-46.666 -37.333 -75.999 -49s-60.333 -17.5 -93 -17.5h-510v67h91v677zM587 67c22.667 0 44.167 4.50098 64.5 13.501s38 21 53 36s26.833 32.667 35.5 53s13 42.166 13 65.499c0 22.667 -4.33301 44.5 -13 65.5
s-20.5 39.5 -35.5 55.5s-32.667 28.667 -53 38s-41.833 14.333 -64.5 15c-40.667 0.666992 -79 -7.83301 -115 -25.5s-68.667 -42 -98 -73s-54.833 -67.5 -76.5 -109.5s-38.5 -86.667 -50.5 -134h340zM452 612.001c0 13.333 4.66699 24.666 14 33.999s20.666 14 33.999 14
s24.666 -4.66699 33.999 -14s14 -20.666 14 -33.999s-4.66699 -24.666 -14 -33.999s-20.666 -14 -33.999 -14s-24.666 4.66699 -33.999 14s-14 20.666 -14 33.999z" />
    <glyph glyph-name="ayniso" unicode="&#x639;" horiz-adv-x="687" arabic-form="isolated" 
d="M265 159c-23.333 21.333 -42.0029 46.835 -56.0029 76.502s-21 61.5 -21 95.5c0 32.667 6.5 63.667 19.5 93s30.833 54.666 53.5 75.999s48.667 38.333 78 51s60.666 19 93.999 19c40.667 0 78.334 -9.16699 113.001 -27.5s63.334 -42.833 86.001 -73.5l-69 -32
c-16 19.333 -35.5 35.166 -58.5 47.499s-47.5 18.5 -73.5 18.5c-23.333 0 -45.333 -4.83301 -66 -14.5s-38.834 -22.5 -54.501 -38.5s-28.167 -34.5 -37.5 -55.5s-14 -42.833 -14 -65.5c0 -23.333 4.66699 -45.166 14 -65.499s21.833 -38 37.5 -53s33.834 -27 54.501 -36
s42.667 -13.5 66 -13.5h197v-67h-321c-27.333 0 -52.333 -3 -75 -9s-42.167 -15.5 -58.5 -28.5s-29 -29.5 -38 -49.5s-13.5 -44 -13.5 -72s4.5 -52 13.5 -72s21.833 -36.5 38.5 -49.5s36.334 -22.5 59.001 -28.5s48 -9 76 -9c35.333 0 66.333 4.66699 93 14s48 24.333 64 45
l50 -45c-22.667 -27.333 -51.667 -47.666 -87 -60.999s-75.333 -20 -120 -20c-37.333 0 -71.5 4.83301 -102.5 14.5s-57.667 24 -80 43s-39.833 42.5 -52.5 70.5s-19 60.667 -19 98c0 33.333 5 63.166 15 89.499s24.333 48.833 43 67.5s40.834 33.667 66.501 45
s54.167 18.666 85.5 21.999z" />
    <glyph glyph-name="ghaiso" unicode="&#x63a;" horiz-adv-x="687" arabic-form="isolated" 
d="M265 159c-23.333 21.333 -42.0029 46.835 -56.0029 76.502s-21 61.5 -21 95.5c0 32.667 6.5 63.667 19.5 93s30.833 54.666 53.5 75.999s48.667 38.333 78 51s60.666 19 93.999 19c40.667 0 78.334 -9.16699 113.001 -27.5s63.334 -42.833 86.001 -73.5l-69 -32
c-16 19.333 -35.5 35.166 -58.5 47.499s-47.5 18.5 -73.5 18.5c-23.333 0 -45.333 -4.83301 -66 -14.5s-38.834 -22.5 -54.501 -38.5s-28.167 -34.5 -37.5 -55.5s-14 -42.833 -14 -65.5c0 -23.333 4.66699 -45.166 14 -65.499s21.833 -38 37.5 -53s33.834 -27 54.501 -36
s42.667 -13.5 66 -13.5h197v-67h-321c-27.333 0 -52.333 -3 -75 -9s-42.167 -15.5 -58.5 -28.5s-29 -29.5 -38 -49.5s-13.5 -44 -13.5 -72s4.5 -52 13.5 -72s21.833 -36.5 38.5 -49.5s36.334 -22.5 59.001 -28.5s48 -9 76 -9c35.333 0 66.333 4.66699 93 14s48 24.333 64 45
l50 -45c-22.667 -27.333 -51.667 -47.666 -87 -60.999s-75.333 -20 -120 -20c-37.333 0 -71.5 4.83301 -102.5 14.5s-57.667 24 -80 43s-39.833 42.5 -52.5 70.5s-19 60.667 -19 98c0 33.333 5 63.166 15 89.499s24.333 48.833 43 67.5s40.834 33.667 66.501 45
s54.167 18.666 85.5 21.999zM357.997 674.002c0 13.333 4.66699 24.666 14 33.999s20.666 14 33.999 14s24.666 -4.66699 33.999 -14s14 -20.666 14 -33.999s-4.66699 -24.666 -14 -33.999s-20.666 -14 -33.999 -14s-24.666 4.66699 -33.999 14s-14 20.666 -14 33.999z" />
    <glyph glyph-name="faiso" unicode="&#x641;" horiz-adv-x="1065" arabic-form="isolated" 
d="M603 238c0 -23.333 4.5 -45.333 13.5 -66s21.167 -38.667 36.5 -54s33.333 -27.5 54 -36.5s42.667 -13.5 66 -13.5s45.333 4.5 66 13.5s38.667 21.167 54 36.5s27.5 33.333 36.5 54s13.5 42.667 13.5 66s-4.5 45.333 -13.5 66s-21.167 38.667 -36.5 54
s-33.333 27.5 -54 36.5s-42.667 13.5 -66 13.5s-45.333 -4.5 -66 -13.5s-38.667 -21.167 -54 -36.5s-27.5 -33.333 -36.5 -54s-13.5 -42.667 -13.5 -66zM359 0c-46 0.666992 -86.668 8.66895 -122.001 24.002s-65 36.5 -89 63.5s-42.167 58.833 -54.5 95.5
s-18.5 77 -18.5 121v104h72v-98c0 -35.333 4.33301 -67.833 13 -97.5s21.834 -55.334 39.501 -77.001s39.834 -38.5 66.501 -50.5s57.667 -18 93 -18h251c-22.667 21.333 -40.834 46.666 -54.501 75.999s-20.5 61 -20.5 95c0 32.667 6.33301 63.5 19 92.5
s29.667 54.167 51 75.5s46.5 38.333 75.5 51s59.833 19 92.5 19s63.5 -6.33301 92.5 -19s54.167 -29.667 75.5 -51s38.333 -46.5 51 -75.5s19 -59.833 19 -92.5s-6.33301 -63.5 -19 -92.5s-29.667 -54.167 -51 -75.5s-46.5 -38.333 -75.5 -51s-59.833 -19 -92.5 -19h-414z
M714.999 612.002c0 13.333 4.66699 24.666 14 33.999s20.666 14 33.999 14s24.666 -4.66699 33.999 -14s14 -20.666 14 -33.999s-4.66699 -24.666 -14 -33.999s-20.666 -14 -33.999 -14s-24.666 4.66699 -33.999 14s-14 20.666 -14 33.999z" />
    <glyph glyph-name="kaafiso" unicode="&#x642;" horiz-adv-x="1065" arabic-form="isolated" 
d="M603 238c0 -23.333 4.5 -45.333 13.5 -66s21.167 -38.667 36.5 -54s33.333 -27.5 54 -36.5s42.667 -13.5 66 -13.5s45.333 4.5 66 13.5s38.667 21.167 54 36.5s27.5 33.333 36.5 54s13.5 42.667 13.5 66s-4.5 45.333 -13.5 66s-21.167 38.667 -36.5 54
s-33.333 27.5 -54 36.5s-42.667 13.5 -66 13.5s-45.333 -4.5 -66 -13.5s-38.667 -21.167 -54 -36.5s-27.5 -33.333 -36.5 -54s-13.5 -42.667 -13.5 -66zM359 0c-46 0.666992 -86.668 8.66895 -122.001 24.002s-65 36.5 -89 63.5s-42.167 58.833 -54.5 95.5
s-18.5 77 -18.5 121v104h72v-98c0 -35.333 4.33301 -67.833 13 -97.5s21.834 -55.334 39.501 -77.001s39.834 -38.5 66.501 -50.5s57.667 -18 93 -18h251c-22.667 21.333 -40.834 46.666 -54.501 75.999s-20.5 61 -20.5 95c0 32.667 6.33301 63.5 19 92.5
s29.667 54.167 51 75.5s46.5 38.333 75.5 51s59.833 19 92.5 19s63.5 -6.33301 92.5 -19s54.167 -29.667 75.5 -51s38.333 -46.5 51 -75.5s19 -59.833 19 -92.5s-6.33301 -63.5 -19 -92.5s-29.667 -54.167 -51 -75.5s-46.5 -38.333 -75.5 -51s-59.833 -19 -92.5 -19h-414z
M643.999 612.002c0 13.333 4.66699 24.666 14 33.999s20.666 14 33.999 14s24.666 -4.66699 33.999 -14s14 -20.666 14 -33.999s-4.66699 -24.666 -14 -33.999s-20.666 -14 -33.999 -14s-24.666 4.66699 -33.999 14s-14 20.666 -14 33.999zM787.999 612.002
c0 13.333 4.66699 24.666 14 33.999s20.666 14 33.999 14s24.666 -4.66699 33.999 -14s14 -20.666 14 -33.999s-4.66699 -24.666 -14 -33.999s-20.666 -14 -33.999 -14s-24.666 4.66699 -33.999 14s-14 20.666 -14 33.999z" />
    <glyph glyph-name="kafiso" unicode="&#x643;" horiz-adv-x="842" arabic-form="isolated" 
d="M405 0l-66.002 0.000976562c-46 0.666992 -86.667 8.66699 -122 24s-65 36.5 -89 63.5s-42.167 58.833 -54.5 95.5s-18.5 77 -18.5 121v54h72v-48c0 -35.333 4.33301 -67.833 13 -97.5s21.834 -55.334 39.501 -77.001s39.834 -38.5 66.501 -50.5s57.667 -18 93 -18h66
h117h48c46 0 78.333 10.5 97 31.5s28 52.5 28 94.5v551h72v-551c0 -63.333 -16.167 -111.333 -48.5 -144s-75.833 -49 -130.5 -49h-66h-117zM285.998 439.001l55.998 0.000976562c-8.66699 9.33301 -14.667 18.333 -18 27s-5 21 -5 37c0 15.333 3 29.666 9 42.999
s14.167 25 24.5 35s22.333 18 36 24s28.167 9 43.5 9c18 0 35 -4 51 -12s29.667 -18.667 41 -32l-39 -24c-6.66699 7.33301 -13.667 12 -21 14s-14.666 3.33301 -21.999 4c-17.333 0.666992 -32.666 -4.33301 -45.999 -15s-20 -25.667 -20 -45
c0 -18.667 7.83301 -34.167 23.5 -46.5s34.167 -18.5 55.5 -18.5h67v-51h-236v51z" />
    <glyph glyph-name="lamiso" unicode="&#x644;" horiz-adv-x="675" arabic-form="isolated" 
d="M549 744h71.002v-580c0 -51.333 -6.5 -96.333 -19.5 -135s-31.833 -71 -56.5 -97s-54.334 -45.5 -89.001 -58.5s-74 -19.5 -118 -19.5c-43.333 0 -82.333 6.5 -117 19.5s-64.334 32.333 -89.001 58s-43.5 57.5 -56.5 95.5s-19.5 81.667 -19.5 131v86h71v-81
c0 -76 18.667 -135.667 56 -179s89.666 -65 156.999 -65c64.667 0 115.834 20.667 153.501 62s56.5 100.333 56.5 177v586z" />
    <glyph glyph-name="meemiso" unicode="&#x645;" horiz-adv-x="768" arabic-form="isolated" 
d="M243 150c-0.666992 3.33301 -0.99707 6.99414 -0.99707 10.9941v11c0 32.667 6.16699 63.334 18.5 92.001s29.166 53.667 50.499 75s46.166 38.166 74.499 50.499s58.833 18.5 91.5 18.5s63.334 -6.16699 92.001 -18.5s53.667 -29.166 75 -50.499
s38.166 -46.333 50.499 -75s18.5 -59.334 18.5 -92.001s-6.16699 -63.167 -18.5 -91.5s-29.166 -53.166 -50.499 -74.499s-46.333 -38.166 -75 -50.499s-59.334 -18.5 -92.001 -18.5c-43.333 0 -82.666 10.333 -117.999 31s-63.333 48 -84 82
c-6.66699 -13.333 -15.834 -23.166 -27.501 -29.499s-24.834 -11.166 -39.501 -14.499c-30 -7.33301 -51 -22.333 -63 -45s-18 -50 -18 -82v-167h-72v163c0 44.667 10.167 84.334 30.5 119.001s53.833 59 100.5 73c14.667 4.66699 28.167 11.334 40.5 20.001
s18.5 22.667 18.5 42c0 3.33301 -0.166992 6.83301 -0.5 10.5s-0.833008 7.16699 -1.5 10.5zM307.003 169.994c0 -23.333 4.5 -45.333 13.5 -66s21.167 -38.667 36.5 -54s33.333 -27.5 54 -36.5s42.667 -13.5 66 -13.5s45.333 4.5 66 13.5s38.834 21.167 54.501 36.5
s28 33.333 37 54s13.5 42.667 13.5 66s-4.5 45.333 -13.5 66s-21.333 38.834 -37 54.501s-33.834 28 -54.501 37s-42.667 13.5 -66 13.5s-45.333 -4.5 -66 -13.5s-38.667 -21.333 -54 -37s-27.5 -33.834 -36.5 -54.501s-13.5 -42.667 -13.5 -66z" />
    <glyph glyph-name="nouniso" unicode="&#x646;" horiz-adv-x="678" arabic-form="isolated" 
d="M339 -79c35.333 0 66.3291 6 92.9961 18s48.834 28.833 66.501 50.5s30.834 47.334 39.501 77.001s13 62.167 13 97.5v244h72v-250c0 -44 -6.16699 -84.5 -18.5 -121.5s-30.5 -69 -54.5 -96s-53.667 -48.167 -89 -63.5s-76 -23 -122 -23
c-46 0.666992 -86.667 8.66699 -122 24s-65 36.5 -89 63.5s-42.167 58.833 -54.5 95.5s-18.5 77 -18.5 121v250h72v-244c0 -35.333 4.33301 -67.833 13 -97.5s21.834 -55.334 39.501 -77.001s39.834 -38.5 66.501 -50.5s57.667 -18 93 -18zM292.996 612
c0 13.333 4.66699 24.666 14 33.999s20.666 14 33.999 14s24.666 -4.66699 33.999 -14s14 -20.666 14 -33.999s-4.66699 -24.666 -14 -33.999s-20.666 -14 -33.999 -14s-24.666 4.66699 -33.999 14s-14 20.666 -14 33.999z" />
    <glyph glyph-name="haini" unicode="&#x647;" horiz-adv-x="660" arabic-form="initial" 
d="M75 172c0 23.333 4.5 44.999 13.5 64.999s21.333 37.333 37 52s33.667 26.167 54 34.5s41.833 12.5 64.5 12.5s44.5 -4.16699 65.5 -12.5s39.167 -19.833 54.5 -34.5s27.666 -32 36.999 -52s14 -41.667 14 -65c0 -19.333 -3.5 -38 -10.5 -56s-16.833 -34.333 -29.5 -49
h159v139c0 28 -5.16699 54.333 -15.5 79s-24.333 46.334 -42 65.001s-38.667 33.334 -63 44.001s-50.5 16 -78.5 16h-171v66h171c37.333 0 72.333 -7 105 -21s61.334 -33.333 86.001 -58s44 -53.334 58 -86.001s21 -67.667 21 -105l-1 -206h-613v67h123
c-12 14.667 -21.5 31 -28.5 49s-10.5 36.667 -10.5 56zM143 170.999c0 -13.333 2.83105 -26.167 8.49805 -38.5s13 -23.333 22 -33s19.5 -17.5 31.5 -23.5s24.667 -9 38 -9h4c12.667 0.666992 24.834 4 36.501 10s22 13.833 31 23.5s16 20.667 21 33s7.5 24.833 7.5 37.5
c0 13.333 -2.66699 26 -8 38s-12.5 22.667 -21.5 32s-19.667 16.666 -32 21.999s-25.166 8 -38.499 8s-26 -2.66699 -38 -8s-22.5 -12.666 -31.5 -21.999s-16.333 -20 -22 -32s-8.5 -24.667 -8.5 -38z" />
    <glyph glyph-name="wawiso" unicode="&#x648;" horiz-adv-x="550" arabic-form="isolated" 
d="M285 401c-23.333 0 -45 -4.33398 -65 -13.001s-37.5 -20.5 -52.5 -35.5s-26.833 -32.667 -35.5 -53s-13 -41.833 -13 -64.5c0 -23.333 4.33301 -45.166 13 -65.499s20.5 -38 35.5 -53s32.5 -27 52.5 -36s41.667 -13.5 65 -13.5h119v201c0 44 -9.5 77.167 -28.5 99.5
s-49.167 33.5 -90.5 33.5zM475 -0.000976562c-2 -37.333 -10.3311 -70.668 -24.998 -100.001s-34 -54.333 -58 -75s-51.833 -36.5 -83.5 -47.5s-65.167 -16.5 -100.5 -16.5c-28.667 0 -60 4 -94 12l18 59c25.333 -5.33301 50.333 -8 75 -8
c27.333 0 52.833 3.83301 76.5 11.5s44.167 19 61.5 34s31.166 33.5 41.499 55.5s16.166 47 17.499 75h-117c-33.333 0 -64.5 5.83301 -93.5 17.5s-54.167 28 -75.5 49s-38.333 45.5 -51 73.5s-19 58.667 -19 92c0 32.667 6.33301 63.5 19 92.5s29.667 54 51 75
s46.5 37.667 75.5 50s60.167 18.5 93.5 18.5c32.667 0 61 -5.33301 85 -16s43.5 -25 58.5 -43s26.167 -39.167 33.5 -63.5s11 -50.166 11 -77.499v-201v-67z" />
    <glyph glyph-name="alefma2souraiso" unicode="&#x649;" horiz-adv-x="900" arabic-form="isolated" 
d="M851 345c-7.33301 8 -15.5029 16.1641 -24.5029 24.4971s-19.333 15.833 -31 22.5s-24.167 11.667 -37.5 15s-27.333 4.66602 -42 3.99902c-35.333 -2.66699 -55.666 -13.334 -60.999 -32.001s0.666992 -42 18 -70l92 -151c15.333 -25.333 21.5 -52.166 18.5 -80.499
s-12.5 -54.166 -28.5 -77.499s-37.167 -42.666 -63.5 -57.999s-55.5 -23 -87.5 -23h-264c-46 0.666992 -86.667 8.66699 -122 24s-65 36.5 -89 63.5s-42.167 58.833 -54.5 95.5s-18.5 77 -18.5 121v23h72v-17c0 -35.333 4.33301 -67.833 13 -97.5
s21.834 -55.334 39.501 -77.001s39.834 -38.5 66.501 -50.5s57.667 -18 93 -18h268c17.333 0 33.833 4.66699 49.5 14s28.5 20.833 38.5 34.5s16.667 28.334 20 44.001s1 30.167 -7 43.5l-102 172c-14.667 24.667 -21.5 48 -20.5 70s7.83301 41.333 20.5 58
s29.667 29.834 51 39.501s45 14.5 71 14.5c12 0 25.5 -2 40.5 -6s30.5 -10.167 46.5 -18.5s31.833 -19.166 47.5 -32.499s29.5 -29 41.5 -47z" />
    <glyph glyph-name="yaiso" unicode="&#x64a;" horiz-adv-x="900" arabic-form="isolated" 
d="M851 345c-7.33301 8 -15.5029 16.1641 -24.5029 24.4971s-19.333 15.833 -31 22.5s-24.167 11.667 -37.5 15s-27.333 4.66602 -42 3.99902c-35.333 -2.66699 -55.666 -13.334 -60.999 -32.001s0.666992 -42 18 -70l92 -151c15.333 -25.333 21.5 -52.166 18.5 -80.499
s-12.5 -54.166 -28.5 -77.499s-37.167 -42.666 -63.5 -57.999s-55.5 -23 -87.5 -23h-264c-46 0.666992 -86.667 8.66699 -122 24s-65 36.5 -89 63.5s-42.167 58.833 -54.5 95.5s-18.5 77 -18.5 121v23h72v-17c0 -35.333 4.33301 -67.833 13 -97.5
s21.834 -55.334 39.501 -77.001s39.834 -38.5 66.501 -50.5s57.667 -18 93 -18h268c17.333 0 33.833 4.66699 49.5 14s28.5 20.833 38.5 34.5s16.667 28.334 20 44.001s1 30.167 -7 43.5l-102 172c-14.667 24.667 -21.5 48 -20.5 70s7.83301 41.333 20.5 58
s29.667 29.834 51 39.501s45 14.5 71 14.5c12 0 25.5 -2 40.5 -6s30.5 -10.167 46.5 -18.5s31.833 -19.166 47.5 -32.499s29.5 -29 41.5 -47zM317.997 -190.003c0 13.333 4.66699 24.666 14 33.999s20.666 14 33.999 14s24.666 -4.66699 33.999 -14s14 -20.666 14 -33.999
s-4.66699 -24.666 -14 -33.999s-20.666 -14 -33.999 -14s-24.666 4.66699 -33.999 14s-14 20.666 -14 33.999zM461.997 -190.003c0 13.333 4.66699 24.666 14 33.999s20.666 14 33.999 14s24.666 -4.66699 33.999 -14s14 -20.666 14 -33.999s-4.66699 -24.666 -14 -33.999
s-20.666 -14 -33.999 -14s-24.666 4.66699 -33.999 14s-14 20.666 -14 33.999z" />
    <glyph glyph-name="alefwaslaiso" unicode="&#x671;" horiz-adv-x="208" arabic-form="isolated" 
d="M36 814l21.998 0.00195312c2.66699 9.33301 6.33398 17.666 11.001 24.999s9.66699 14.666 15 21.999c12.667 12.667 29.334 19 50.001 19c14 0 24.667 -3.66699 32 -11c9.33301 -7.33301 14 -20 14 -38v-44h-144v27zM148.998 814.002l0.000976562 14.001
c0 11.333 -1.66699 19.666 -5 24.999c-3.33301 4 -7 6 -11 6c-8 0 -17 -5 -27 -15c-4.66699 -5.33301 -8.33398 -10.5 -11.001 -15.5s-4.66699 -9.83301 -6 -14.5h60zM74.999 744.003h71v-744h-71v744z" />
    <glyph glyph-name="piso.001" unicode="&#x67e;" horiz-adv-x="941" arabic-form="isolated" 
d="M532 -268c0 13.333 -4.66699 24.666 -14 33.999s-20.666 14 -33.999 14s-24.666 -4.66699 -33.999 -14s-14 -20.666 -14 -33.999s4.66699 -24.666 14 -33.999s20.666 -14 33.999 -14s24.666 4.66699 33.999 14s14 20.666 14 33.999zM616 -128
c0 13.333 -4.66699 24.666 -14 33.999s-20.666 14 -33.999 14s-24.666 -4.66699 -33.999 -14s-14 -20.666 -14 -33.999s4.66699 -24.666 14 -33.999s20.666 -14 33.999 -14s24.666 4.66699 33.999 14s14 20.666 14 33.999zM443 -128c0 13.333 -4.66699 24.666 -14 33.999
s-20.666 14 -33.999 14s-24.666 -4.66699 -33.999 -14s-14 -20.666 -14 -33.999s4.66699 -24.666 14 -33.999s20.666 -14 33.999 -14s24.666 4.66699 33.999 14s14 20.666 14 33.999zM359 0c-46 0.666992 -86.6709 8.66699 -122.004 24s-65 36.5 -89 63.5
s-42.167 58.833 -54.5 95.5s-18.5 77 -18.5 121v104h72v-98c0 -35.333 4.33301 -67.833 13 -97.5s21.834 -55.334 39.501 -77.001s39.834 -38.5 66.501 -50.5s57.667 -18 93 -18h243c35.333 0 66.333 6 93 18s48.834 28.833 66.501 50.5s30.834 47.334 39.501 77.001
s13 62.167 13 97.5v98h72v-104c0 -44 -6.16699 -84.5 -18.5 -121.5s-30.5 -69 -54.5 -96s-53.667 -48.167 -89 -63.5s-76 -23 -122 -23h-243z" />
    <glyph glyph-name="giso" unicode="&#x686;" horiz-adv-x="674" arabic-form="isolated" 
d="M450 -130c0 13.333 -4.66699 24.666 -14 33.999s-20.666 14 -33.999 14s-24.666 -4.66699 -33.999 -14s-14 -20.666 -14 -33.999s4.66699 -24.666 14 -33.999s20.666 -14 33.999 -14s24.666 4.66699 33.999 14s14 20.666 14 33.999zM534 10
c0 13.333 -4.66699 24.666 -14 33.999s-20.666 14 -33.999 14s-24.666 -4.66699 -33.999 -14s-14 -20.666 -14 -33.999s4.66699 -24.666 14 -33.999s20.666 -14 33.999 -14s24.666 4.66699 33.999 14s14 20.666 14 33.999zM361 10c0 13.333 -4.66699 24.666 -14 33.999
s-20.666 14 -33.999 14s-24.666 -4.66699 -33.999 -14s-14 -20.666 -14 -33.999s4.66699 -24.666 14 -33.999s20.666 -14 33.999 -14s24.666 4.66699 33.999 14s14 20.666 14 33.999zM619 95h-269h2c-28 0 -53.333 -3 -76 -9s-42.334 -15.5 -59.001 -28.5
s-29.5 -29.5 -38.5 -49.5s-13.5 -44 -13.5 -72s4.5 -52 13.5 -72s21.833 -36.5 38.5 -49.5s36.334 -22.5 59.001 -28.5s48 -9 76 -9c35.333 0 66.333 4.66699 93 14s48 24.333 64 45l50 -45c-22.667 -27.333 -51.667 -47.666 -87 -60.999s-75.333 -20 -120 -20
c-37.333 0 -71.5 4.83301 -102.5 14.5s-57.667 24 -80 43s-39.833 42.5 -52.5 70.5s-19 60.667 -19 98s6.33301 70 19 98s30.167 51.5 52.5 70.5s49 33.333 80 43s65.167 14.5 102.5 14.5h199l-2 12c-0.666992 3.33301 -1 6.83301 -1 10.5v10.5v50
c0 28 -5.33301 54.333 -16 79s-25.167 46.167 -43.5 64.5s-39.833 32.833 -64.5 43.5s-51 16 -79 16s-54.167 -5.16699 -78.5 -15.5s-45.833 -24.833 -64.5 -43.5l-45 49c24.667 24 53 42.833 85 56.5s66.333 20.5 103 20.5c37.333 0 72.5 -7 105.5 -21s62 -33.333 87 -58
s44.833 -53.334 59.5 -86.001s22 -67.667 22 -105v-150z" />
    <glyph glyph-name="jehiso" unicode="&#x698;" horiz-adv-x="341" arabic-form="isolated" 
d="M212 408l70.999 0.000976562v-394c0 -39.333 -7 -74.5 -21 -105.5s-33.167 -57.333 -57.5 -79s-52.666 -38.334 -84.999 -50.001s-66.833 -17.5 -103.5 -17.5c-28.667 0 -60 4 -94 12l18 59c25.333 -5.33301 50.333 -8 75 -8c28.667 0 55 4 79 12s44.667 20 62 36
s31 35.667 41 59s15 50 15 80v396zM148.999 730.001c0 13.333 4.66699 24.666 14 33.999s20.666 14 33.999 14s24.666 -4.66699 33.999 -14s14 -20.666 14 -33.999s-4.66699 -24.666 -14 -33.999s-20.666 -14 -33.999 -14s-24.666 4.66699 -33.999 14s-14 20.666 -14 33.999
zM78.999 610.001c0 13.333 4.66699 24.666 14 33.999s20.666 14 33.999 14s24.666 -4.66699 33.999 -14s14 -20.666 14 -33.999s-4.66699 -24.666 -14 -33.999s-20.666 -14 -33.999 -14s-24.666 4.66699 -33.999 14s-14 20.666 -14 33.999zM222.999 610.001
c0 13.333 4.66699 24.666 14 33.999s20.666 14 33.999 14s24.666 -4.66699 33.999 -14s14 -20.666 14 -33.999s-4.66699 -24.666 -14 -33.999s-20.666 -14 -33.999 -14s-24.666 4.66699 -33.999 14s-14 20.666 -14 33.999z" />
    <glyph glyph-name="vehiso" unicode="&#x6a4;" horiz-adv-x="1065" arabic-form="isolated" 
d="M603 238c0 -23.333 4.5 -45.333 13.5 -66s21.167 -38.667 36.5 -54s33.333 -27.5 54 -36.5s42.667 -13.5 66 -13.5s45.333 4.5 66 13.5s38.667 21.167 54 36.5s27.5 33.333 36.5 54s13.5 42.667 13.5 66s-4.5 45.333 -13.5 66s-21.167 38.667 -36.5 54
s-33.333 27.5 -54 36.5s-42.667 13.5 -66 13.5s-45.333 -4.5 -66 -13.5s-38.667 -21.167 -54 -36.5s-27.5 -33.333 -36.5 -54s-13.5 -42.667 -13.5 -66zM359 0c-46 0.666992 -86.668 8.66895 -122.001 24.002s-65 36.5 -89 63.5s-42.167 58.833 -54.5 95.5
s-18.5 77 -18.5 121v104h72v-98c0 -35.333 4.33301 -67.833 13 -97.5s21.834 -55.334 39.501 -77.001s39.834 -38.5 66.501 -50.5s57.667 -18 93 -18h251c-22.667 21.333 -40.834 46.666 -54.501 75.999s-20.5 61 -20.5 95c0 32.667 6.33301 63.5 19 92.5
s29.667 54.167 51 75.5s46.5 38.333 75.5 51s59.833 19 92.5 19s63.5 -6.33301 92.5 -19s54.167 -29.667 75.5 -51s38.333 -46.5 51 -75.5s19 -59.833 19 -92.5s-6.33301 -63.5 -19 -92.5s-29.667 -54.167 -51 -75.5s-46.5 -38.333 -75.5 -51s-59.833 -19 -92.5 -19h-414z
M707.999 730.002c0 13.333 4.66699 24.666 14 33.999s20.666 14 33.999 14s24.666 -4.66699 33.999 -14s14 -20.666 14 -33.999s-4.66699 -24.666 -14 -33.999s-20.666 -14 -33.999 -14s-24.666 4.66699 -33.999 14s-14 20.666 -14 33.999zM637.999 610.002
c0 13.333 4.66699 24.666 14 33.999s20.666 14 33.999 14s24.666 -4.66699 33.999 -14s14 -20.666 14 -33.999s-4.66699 -24.666 -14 -33.999s-20.666 -14 -33.999 -14s-24.666 4.66699 -33.999 14s-14 20.666 -14 33.999zM781.999 610.002
c0 13.333 4.66699 24.666 14 33.999s20.666 14 33.999 14s24.666 -4.66699 33.999 -14s14 -20.666 14 -33.999s-4.66699 -24.666 -14 -33.999s-20.666 -14 -33.999 -14s-24.666 4.66699 -33.999 14s-14 20.666 -14 33.999z" />
    <glyph glyph-name="kehehiso" unicode="&#x6a9;" horiz-adv-x="859" arabic-form="isolated" 
d="M405 0l-66.002 0.000976562c-46 0.666992 -86.667 8.66699 -122 24s-65 36.5 -89 63.5s-42.167 58.833 -54.5 95.5s-18.5 77 -18.5 121v54h72v-48c0 -35.333 4.33301 -67.833 13 -97.5s21.834 -55.334 39.501 -77.001s39.834 -38.5 66.501 -50.5s57.667 -18 93 -18h66
h117h48c46 0 78.333 10.5 97 31.5s28 52.5 28 94.5v551h72v-551c0 -63.333 -16.167 -111.333 -48.5 -144s-75.833 -49 -130.5 -49h-66h-117zM285.998 439.001l55.998 0.000976562c-8.66699 9.33301 -14.667 18.333 -18 27s-5 21 -5 37c0 15.333 3 29.666 9 42.999
s14.167 25 24.5 35s22.333 18 36 24s28.167 9 43.5 9c18 0 35 -4 51 -12s29.667 -18.667 41 -32l-39 -24c-6.66699 7.33301 -13.667 12 -21 14s-14.666 3.33301 -21.999 4c-17.333 0.666992 -32.666 -4.33301 -45.999 -15s-20 -25.667 -20 -45
c0 -18.667 7.83301 -34.167 23.5 -46.5s34.167 -18.5 55.5 -18.5h67v-51h-236v51z" />
    <glyph glyph-name="gafiso" unicode="&#x6af;" horiz-adv-x="842" arabic-form="isolated" 
d="M405 0l-66.002 0.000976562c-46 0.666992 -86.667 8.66699 -122 24s-65 36.5 -89 63.5s-42.167 58.833 -54.5 95.5s-18.5 77 -18.5 121v54h72v-48c0 -35.333 4.33301 -67.833 13 -97.5s21.834 -55.334 39.501 -77.001s39.834 -38.5 66.501 -50.5s57.667 -18 93 -18h66
h117h48c46 0 78.333 10.5 97 31.5s28 52.5 28 94.5v551h72v-551c0 -63.333 -16.167 -111.333 -48.5 -144s-75.833 -49 -130.5 -49h-66h-117zM285.998 439.001l55.998 0.000976562c-8.66699 9.33301 -14.667 18.333 -18 27s-5 21 -5 37c0 15.333 3 29.666 9 42.999
s14.167 25 24.5 35s22.333 18 36 24s28.167 9 43.5 9c18 0 35 -4 51 -12s29.667 -18.667 41 -32l-39 -24c-6.66699 7.33301 -13.667 12 -21 14s-14.666 3.33301 -21.999 4c-17.333 0.666992 -32.666 -4.33301 -45.999 -15s-20 -25.667 -20 -45
c0 -18.667 7.83301 -34.167 23.5 -46.5s34.167 -18.5 55.5 -18.5h67v-51h-236v51z" />
    <glyph glyph-name="farsiyaiso" unicode="&#x6cc;" horiz-adv-x="918" arabic-form="isolated" 
d="M851 345c-7.33301 8 -15.5029 16.1641 -24.5029 24.4971s-19.333 15.833 -31 22.5s-24.167 11.667 -37.5 15s-27.333 4.66602 -42 3.99902c-35.333 -2.66699 -55.666 -13.334 -60.999 -32.001s0.666992 -42 18 -70l92 -151c15.333 -25.333 21.5 -52.166 18.5 -80.499
s-12.5 -54.166 -28.5 -77.499s-37.167 -42.666 -63.5 -57.999s-55.5 -23 -87.5 -23h-264c-46 0.666992 -86.667 8.66699 -122 24s-65 36.5 -89 63.5s-42.167 58.833 -54.5 95.5s-18.5 77 -18.5 121v23h72v-17c0 -35.333 4.33301 -67.833 13 -97.5
s21.834 -55.334 39.501 -77.001s39.834 -38.5 66.501 -50.5s57.667 -18 93 -18h268c17.333 0 33.833 4.66699 49.5 14s28.5 20.833 38.5 34.5s16.667 28.334 20 44.001s1 30.167 -7 43.5l-102 172c-14.667 24.667 -21.5 48 -20.5 70s7.83301 41.333 20.5 58
s29.667 29.834 51 39.501s45 14.5 71 14.5c12 0 25.5 -2 40.5 -6s30.5 -10.167 46.5 -18.5s31.833 -19.166 47.5 -32.499s29.5 -29 41.5 -47z" />
    <glyph glyph-name="alefwaslafina" unicode="&#x671;" horiz-adv-x="311" arabic-form="final" 
d="M320 0h-66c-54.667 -0 -98.167 16.333 -130.5 49s-48.5 80.667 -48.5 144v551h72v-551c0 -42 9.33301 -73.5 28 -94.5s51 -31.5 97 -31.5h48v-67z" />
    <glyph glyph-name="pfina" unicode="&#x67e;" horiz-adv-x="1058" arabic-form="final" 
d="M532 -268c0 13.333 -4.66699 24.666 -14 33.999s-20.666 14 -33.999 14s-24.666 -4.66699 -33.999 -14s-14 -20.666 -14 -33.999s4.66699 -24.666 14 -33.999s20.666 -14 33.999 -14s24.666 4.66699 33.999 14s14 20.666 14 33.999zM616 -128
c0 13.333 -4.66699 24.666 -14 33.999s-20.666 14 -33.999 14s-24.666 -4.66699 -33.999 -14s-14 -20.666 -14 -33.999s4.66699 -24.666 14 -33.999s20.666 -14 33.999 -14s24.666 4.66699 33.999 14s14 20.666 14 33.999zM443 -128c0 13.333 -4.66699 24.666 -14 33.999
s-20.666 14 -33.999 14s-24.666 -4.66699 -33.999 -14s-14 -20.666 -14 -33.999s4.66699 -24.666 14 -33.999s20.666 -14 33.999 -14s24.666 4.66699 33.999 14s14 20.666 14 33.999zM358 0c-46 0.666992 -86.666 8.66992 -121.999 24.0029s-65 36.5 -89 63.5
s-42.167 58.833 -54.5 95.5s-18.5 77 -18.5 121v104h72v-98c0 -35.333 4.33301 -67.833 13 -97.5s21.834 -55.334 39.501 -77.001s39.834 -38.5 66.501 -50.5s57.667 -18 93 -18h95h216c28 0 51.333 5 70 15s33.5 23.333 44.5 40s18.833 36.167 23.5 58.5s7 45.5 7 69.5
l-1 158h72v-194c0 -42 12.167 -76.833 36.5 -104.5s58.166 -41.834 101.499 -42.501h44v-67h-41c-16.667 0 -33.667 3.16699 -51 9.5s-33.833 14.666 -49.5 24.999s-29.834 22.333 -42.501 36s-22.334 27.5 -29.001 41.5c-15.333 -34 -38 -61.167 -68 -81.5
s-68 -30.5 -114 -30.5h-219h-95z" />
    <glyph glyph-name="pini" unicode="&#x67e;" horiz-adv-x="311" arabic-form="initial" 
d="M157 -268c0 13.333 -4.66699 24.666 -14 33.999s-20.666 14 -33.999 14s-24.666 -4.66699 -33.999 -14s-14 -20.666 -14 -33.999s4.66699 -24.666 14 -33.999s20.666 -14 33.999 -14s24.666 4.66699 33.999 14s14 20.666 14 33.999zM241 -128
c0 13.333 -4.66699 24.666 -14 33.999s-20.666 14 -33.999 14s-24.666 -4.66699 -33.999 -14s-14 -20.666 -14 -33.999s4.66699 -24.666 14 -33.999s20.666 -14 33.999 -14s24.666 4.66699 33.999 14s14 20.666 14 33.999zM68 -128c0 13.333 -4.66699 24.666 -14 33.999
s-20.666 14 -33.999 14s-24.666 -4.66699 -33.999 -14s-14 -20.666 -14 -33.999s4.66699 -24.666 14 -33.999s20.666 -14 33.999 -14s24.666 4.66699 33.999 14s14 20.666 14 33.999zM-9 67h48c46 0 78.333 10.5 97 31.5s28 52.5 28 94.5v215h72v-215
c0 -63.333 -16.167 -111.333 -48.5 -144s-75.833 -49 -130.5 -49h-66v67z" />
    <glyph glyph-name="pmedi" unicode="&#x67e;" horiz-adv-x="434" arabic-form="medial" 
d="M269 -268c0 13.333 -4.66699 24.666 -14 33.999s-20.666 14 -33.999 14s-24.666 -4.66699 -33.999 -14s-14 -20.666 -14 -33.999s4.66699 -24.666 14 -33.999s20.666 -14 33.999 -14s24.666 4.66699 33.999 14s14 20.666 14 33.999zM353 -128
c0 13.333 -4.66699 24.666 -14 33.999s-20.666 14 -33.999 14s-24.666 -4.66699 -33.999 -14s-14 -20.666 -14 -33.999s4.66699 -24.666 14 -33.999s20.666 -14 33.999 -14s24.666 4.66699 33.999 14s14 20.666 14 33.999zM180 -128c0 13.333 -4.66699 24.666 -14 33.999
s-20.666 14 -33.999 14s-24.666 -4.66699 -33.999 -14s-14 -20.666 -14 -33.999s4.66699 -24.666 14 -33.999s20.666 -14 33.999 -14s24.666 4.66699 33.999 14s14 20.666 14 33.999zM45 67c28 0 51.3359 5.00195 70.0029 15.002s33.5 23.333 44.5 40
s18.833 36.167 23.5 58.5s7 45.5 7 69.5l-1 158h72v-194c0 -42 12.167 -76.833 36.5 -104.5s58.166 -41.834 101.499 -42.501h44v-67h-41c-16.667 0 -33.667 3.16699 -51 9.5s-33.833 14.666 -49.5 24.999s-29.834 22.333 -42.501 36s-22.334 27.5 -29.001 41.5
c-15.333 -34 -38 -61.167 -68 -81.5s-68 -30.5 -114 -30.5h-57v67h54z" />
    <glyph glyph-name="gfina" unicode="&#x686;" horiz-adv-x="791" arabic-form="final" 
d="M437 -133c0 13.333 -4.66699 24.666 -14 33.999s-20.666 14 -33.999 14s-24.666 -4.66699 -33.999 -14s-14 -20.666 -14 -33.999s4.66699 -24.666 14 -33.999s20.666 -14 33.999 -14s24.666 4.66699 33.999 14s14 20.666 14 33.999zM521 7
c0 13.333 -4.66699 24.666 -14 33.999s-20.666 14 -33.999 14s-24.666 -4.66699 -33.999 -14s-14 -20.666 -14 -33.999s4.66699 -24.666 14 -33.999s20.666 -14 33.999 -14s24.666 4.66699 33.999 14s14 20.666 14 33.999zM348 7c0 13.333 -4.66699 24.666 -14 33.999
s-20.666 14 -33.999 14s-24.666 -4.66699 -33.999 -14s-14 -20.666 -14 -33.999s4.66699 -24.666 14 -33.999s20.666 -14 33.999 -14s24.666 4.66699 33.999 14s14 20.666 14 33.999zM157 438c24.667 24 53.001 42.833 85.001 56.5s66.333 20.5 103 20.5
c37.333 0 72.5 -7 105.5 -21s62 -33.333 87 -58s44.833 -53.334 59.5 -86.001s22 -67.667 22 -105v-31c0 -50.667 12 -87.667 36 -111s57.667 -35.333 101 -36h44v-67h-58c-14.667 0 -30.834 2.33301 -48.501 7s-34.667 11.167 -51 19.5s-31 18.333 -44 30
s-22.5 24.5 -28.5 38.5h-220h2c-28 0 -53.333 -3 -76 -9s-42.334 -15.5 -59.001 -28.5s-29.5 -29.5 -38.5 -49.5s-13.5 -44 -13.5 -72s4.5 -52 13.5 -72s21.833 -36.5 38.5 -49.5s36.334 -22.5 59.001 -28.5s48 -9 76 -9c35.333 0 66.333 4.66699 93 14s48 24.333 64 45
l50 -45c-22.667 -27.333 -51.667 -47.666 -87 -60.999s-75.333 -20 -120 -20c-37.333 0 -71.5 4.83301 -102.5 14.5s-57.667 24 -80 43s-39.833 42.5 -52.5 70.5s-19 60.667 -19 98s6.33301 70 19 98s30.167 51.5 52.5 70.5s49 33.333 80 43s65.167 14.5 102.5 14.5h199
l-2 12c-0.666992 3.33301 -1 6.83301 -1 10.5v10.5v50c0 28 -5.33301 54.333 -16 79s-25.167 46.167 -43.5 64.5s-39.833 32.833 -64.5 43.5s-51 16 -79 16s-54.167 -5.16699 -78.5 -15.5s-45.833 -24.833 -64.5 -43.5z" />
    <glyph glyph-name="gini" unicode="&#x686;" horiz-adv-x="602" arabic-form="initial" 
d="M317 -268c0 13.333 -4.66699 24.666 -14 33.999s-20.666 14 -33.999 14s-24.666 -4.66699 -33.999 -14s-14 -20.666 -14 -33.999s4.66699 -24.666 14 -33.999s20.666 -14 33.999 -14s24.666 4.66699 33.999 14s14 20.666 14 33.999zM401 -128
c0 13.333 -4.66699 24.666 -14 33.999s-20.666 14 -33.999 14s-24.666 -4.66699 -33.999 -14s-14 -20.666 -14 -33.999s4.66699 -24.666 14 -33.999s20.666 -14 33.999 -14s24.666 4.66699 33.999 14s14 20.666 14 33.999zM228 -128c0 13.333 -4.66699 24.666 -14 33.999
s-20.666 14 -33.999 14s-24.666 -4.66699 -33.999 -14s-14 -20.666 -14 -33.999s4.66699 -24.666 14 -33.999s20.666 -14 33.999 -14s24.666 4.66699 33.999 14s14 20.666 14 33.999zM74 397c24.667 24.667 53 44.001 85 58.001s66.667 21 104 21s72.5 -7 105.5 -21
s62 -33.333 87 -58s44.833 -53.334 59.5 -86.001s22 -67.667 22 -105v-206h-546v67h475v139c0 28 -5.33301 54.333 -16 79s-25.167 46.167 -43.5 64.5s-39.833 32.833 -64.5 43.5s-51 16 -79 16c-28.667 0 -55.5 -5.5 -80.5 -16.5s-46.833 -26.167 -65.5 -45.5z" />
    <glyph glyph-name="gmedi" unicode="&#x686;" horiz-adv-x="577" arabic-form="medial" 
d="M317 -268c0 13.333 -4.66699 24.666 -14 33.999s-20.666 14 -33.999 14s-24.666 -4.66699 -33.999 -14s-14 -20.666 -14 -33.999s4.66699 -24.666 14 -33.999s20.666 -14 33.999 -14s24.666 4.66699 33.999 14s14 20.666 14 33.999zM401 -128
c0 13.333 -4.66699 24.666 -14 33.999s-20.666 14 -33.999 14s-24.666 -4.66699 -33.999 -14s-14 -20.666 -14 -33.999s4.66699 -24.666 14 -33.999s20.666 -14 33.999 -14s24.666 4.66699 33.999 14s14 20.666 14 33.999zM228 -128c0 13.333 -4.66699 24.666 -14 33.999
s-20.666 14 -33.999 14s-24.666 -4.66699 -33.999 -14s-14 -20.666 -14 -33.999s4.66699 -24.666 14 -33.999s20.666 -14 33.999 -14s24.666 4.66699 33.999 14s14 20.666 14 33.999zM72 400c24 23.333 52.167 41.833 84.5 55.5s66.5 20.5 102.5 20.5
c37.333 0 72.5 -7 105.5 -21s62 -33.333 87 -58s44.833 -53.334 59.5 -86.001s22 -67.667 22 -105v-139h53v-67h-595v67h471v139c0 28 -5.33301 54.333 -16 79s-25.167 46.167 -43.5 64.5s-39.833 32.833 -64.5 43.5s-51 16 -79 16c-29.333 0 -56.5 -5.66699 -81.5 -17
s-46.833 -26.666 -65.5 -45.999z" />
    <glyph glyph-name="jehfina" unicode="&#x698;" horiz-adv-x="445" arabic-form="final" 
d="M273 13c0 -39.333 -7.00098 -74.499 -21.001 -105.499s-33.167 -57.333 -57.5 -79s-52.666 -38.334 -84.999 -50.001s-66.833 -17.5 -103.5 -17.5c-28.667 0 -60 4 -94 12l18 59c25.333 -5.33301 50.333 -8 75 -8c28.667 0 55 4 79 12s44.667 20 62 36s31 35.667 41 59
s15 50 15 80v397h71v-194c0 -50.667 12 -87.667 36 -111s57.667 -35.333 101 -36h44v-67h-58c-18.667 -0 -39.167 3.33301 -61.5 10s-42.833 16.667 -61.5 30v-27zM168.999 730.001c0 13.333 4.66699 24.666 14 33.999s20.666 14 33.999 14s24.666 -4.66699 33.999 -14
s14 -20.666 14 -33.999s-4.66699 -24.666 -14 -33.999s-20.666 -14 -33.999 -14s-24.666 4.66699 -33.999 14s-14 20.666 -14 33.999zM98.999 610.001c0 13.333 4.66699 24.666 14 33.999s20.666 14 33.999 14s24.666 -4.66699 33.999 -14s14 -20.666 14 -33.999
s-4.66699 -24.666 -14 -33.999s-20.666 -14 -33.999 -14s-24.666 4.66699 -33.999 14s-14 20.666 -14 33.999zM242.999 610.001c0 13.333 4.66699 24.666 14 33.999s20.666 14 33.999 14s24.666 -4.66699 33.999 -14s14 -20.666 14 -33.999s-4.66699 -24.666 -14 -33.999
s-20.666 -14 -33.999 -14s-24.666 4.66699 -33.999 14s-14 20.666 -14 33.999z" />
    <glyph glyph-name="kehehfina" unicode="&#x6a9;" horiz-adv-x="936" arabic-form="final" 
d="M339 0c-46 0.666992 -86.666 8.66992 -121.999 24.0029s-65 36.5 -89 63.5s-42.167 58.833 -54.5 95.5s-18.5 77 -18.5 121v54h72v-48c0 -35.333 4.33301 -67.833 13 -97.5s21.834 -55.334 39.501 -77.001s39.834 -38.5 66.501 -50.5s57.667 -18 93 -18h158h54
c28 0 51.333 5 70 15s33.5 23.333 44.5 40s18.833 36.167 23.5 58.5s7 45.5 7 69.5l-1 494h72v-530c0 -42 12.167 -76.833 36.5 -104.5s58.166 -41.834 101.499 -42.501h44v-67h-41c-16.667 0 -33.667 3.16699 -51 9.5s-33.833 14.666 -49.5 24.999
s-29.834 22.333 -42.501 36s-22.334 27.5 -29.001 41.5c-15.333 -34 -38 -61.167 -68 -81.5s-68 -30.5 -114 -30.5h-215z" />
    <glyph glyph-name="kafini" unicode="&#x6a9;" horiz-adv-x="626" arabic-form="initial" 
d="M71 391l339.999 352.999h96l-320 -328h94c37.333 0 72.333 -7 105 -21s61.334 -33.333 86.001 -58s44 -53.334 58 -86.001s21 -67.667 21 -105l-1 -146h-559v67h489v79c0 28 -5.16699 54.333 -15.5 79s-24.333 46.334 -42 65.001s-38.667 33.334 -63 44.001
s-50.5 16 -78.5 16h-210v41z" />
    <glyph glyph-name="kafmedi" unicode="&#x6a9;" horiz-adv-x="647" arabic-form="medial" 
d="M71 391l339.999 352.999h96l-320 -328h94c37.333 0 72.333 -7 105 -21s61.334 -33.333 86.001 -58s44 -53.334 58 -86.001s21 -67.667 21 -105l-1 -79h106v-67h-665v67h489v79c0 28 -5.16699 54.333 -15.5 79s-24.333 46.334 -42 65.001s-38.667 33.334 -63 44.001
s-50.5 16 -78.5 16h-210v41z" />
    <glyph glyph-name="gaffina" unicode="&#x6af;" horiz-adv-x="940" arabic-form="final" 
d="M339 0c-46 0.666992 -86.666 8.66992 -121.999 24.0029s-65 36.5 -89 63.5s-42.167 58.833 -54.5 95.5s-18.5 77 -18.5 121v54h72v-48c0 -35.333 4.33301 -67.833 13 -97.5s21.834 -55.334 39.501 -77.001s39.834 -38.5 66.501 -50.5s57.667 -18 93 -18h158h54
c28 0 51.333 5 70 15s33.5 23.333 44.5 40s18.833 36.167 23.5 58.5s7 45.5 7 69.5l-1 494h72v-530c0 -42 12.167 -76.833 36.5 -104.5s58.166 -41.834 101.499 -42.501h44v-67h-41c-16.667 0 -33.667 3.16699 -51 9.5s-33.833 14.666 -49.5 24.999
s-29.834 22.333 -42.501 36s-22.334 27.5 -29.001 41.5c-15.333 -34 -38 -61.167 -68 -81.5s-68 -30.5 -114 -30.5h-215z" />
    <glyph glyph-name="gafini" unicode="&#x6af;" horiz-adv-x="626" arabic-form="initial" 
d="M71 391l339.999 352.999h96l-320 -328h94c37.333 0 72.333 -7 105 -21s61.334 -33.333 86.001 -58s44 -53.334 58 -86.001s21 -67.667 21 -105l-1 -146h-559v67h489v79c0 28 -5.16699 54.333 -15.5 79s-24.333 46.334 -42 65.001s-38.667 33.334 -63 44.001
s-50.5 16 -78.5 16h-210v41z" />
    <glyph glyph-name="gafmedi" unicode="&#x6af;" horiz-adv-x="647" arabic-form="medial" 
d="M71 391l339.999 352.999h96l-320 -328h94c37.333 0 72.333 -7 105 -21s61.334 -33.333 86.001 -58s44 -53.334 58 -86.001s21 -67.667 21 -105l-1 -79h106v-67h-665v67h489v79c0 28 -5.16699 54.333 -15.5 79s-24.333 46.334 -42 65.001s-38.667 33.334 -63 44.001
s-50.5 16 -78.5 16h-210v41z" />
    <glyph glyph-name="kirsehini" unicode="&#x649;" horiz-adv-x="311" arabic-form="initial" 
d="M-9 67h48c46 0 78.333 10.5 97 31.5s28 52.5 28 94.5v215h72v-215c0 -63.333 -16.167 -111.333 -48.5 -144s-75.833 -49 -130.5 -49h-66v67z" />
    <glyph glyph-name="kirsehmedi" unicode="&#x649;" horiz-adv-x="434" arabic-form="medial" 
d="M45 67c28 0 51.3359 5.00195 70.0029 15.002s33.5 23.333 44.5 40s18.833 36.167 23.5 58.5s7 45.5 7 69.5l-1 158h72v-194c0 -42 12.167 -76.833 36.5 -104.5s58.166 -41.834 101.499 -42.501h44v-67h-41c-16.667 0 -33.667 3.16699 -51 9.5
s-33.833 14.666 -49.5 24.999s-29.834 22.333 -42.501 36s-22.334 27.5 -29.001 41.5c-15.333 -34 -38 -61.167 -68 -81.5s-68 -30.5 -114 -30.5h-57v67h54z" />
    <glyph glyph-name="alefma2sourafina" unicode="&#x6cc;" horiz-adv-x="1140" arabic-form="final" 
d="M340 -81c-46 0.666992 -86.6699 8.66602 -122.003 23.999s-65 36.5 -89 63.5s-42.167 58.833 -54.5 95.5s-18.5 77 -18.5 121v23h72v-17c0 -35.333 4.33301 -67.833 13 -97.5s21.834 -55.334 39.501 -77.001s39.834 -38.5 66.501 -50.5s57.667 -18 93 -18h268
c17.333 0 33.833 4.66699 49.5 14s28.5 20.833 38.5 34.5s16.667 28.334 20 44.001s1 30.167 -7 43.5l-102 172c-14.667 24.667 -21.5 48 -20.5 70s7.83301 41.333 20.5 58s29.667 29.834 51 39.501s45 14.5 71 14.5c32.667 0 63 -9 91 -27s50 -42.667 66 -74l98 -191
c6 -12 13.5 -24.833 22.5 -38.5s19 -26.334 30 -38.001s23.167 -21.334 36.5 -29.001s27.333 -11.5 42 -11.5h34v-67h-33c-16.667 0 -33 3.16699 -49 9.5s-31.167 14.666 -45.5 24.999s-27.5 22.5 -39.5 36.5s-22.333 29 -31 45c-2 4 -5.33301 9.83301 -10 17.5
s-11.667 19.834 -21 36.501l-38 67.5l-61 110.5c-9.33301 17.333 -21.666 33 -36.999 47s-33.666 21 -54.999 21c-20.667 0 -36.834 -2.83301 -48.501 -8.5s-19.5 -13.334 -23.5 -23.001s-4.66699 -21 -2 -34s8.66699 -26.833 18 -41.5l92 -151
c15.333 -25.333 21.5 -52.166 18.5 -80.499s-12.5 -54.166 -28.5 -77.499s-37.167 -42.666 -63.5 -57.999s-55.5 -23 -87.5 -23h-264z" />
    <glyph glyph-name="yaini" unicode="&#x6cc;" horiz-adv-x="338" arabic-form="initial" 
d="M-9 67h89c46 0 78.333 10.5 97 31.5s28 52.5 28 94.5v215h72v-215c0 -63.333 -16.167 -111.333 -48.5 -144s-75.833 -49 -130.5 -49h-107v67zM-16 -134c0 -13.333 4.66699 -24.666 14 -33.999s20.666 -14 33.999 -14s24.666 4.66699 33.999 14s14 20.666 14 33.999
s-4.66699 24.666 -14 33.999s-20.666 14 -33.999 14s-24.666 -4.66699 -33.999 -14s-14 -20.666 -14 -33.999zM128 -134c0 -13.333 4.66699 -24.666 14 -33.999s20.666 -14 33.999 -14s24.666 4.66699 33.999 14s14 20.666 14 33.999s-4.66699 24.666 -14 33.999
s-20.666 14 -33.999 14s-24.666 -4.66699 -33.999 -14s-14 -20.666 -14 -33.999z" />
    <glyph glyph-name="yamedi" unicode="&#x6cc;" horiz-adv-x="467" arabic-form="medial" 
d="M65 67c28 0 51.3359 5.00195 70.0029 15.002s33.5 23.333 44.5 40s18.833 36.167 23.5 58.5s7 45.5 7 69.5l-1 158h72v-194c0 -42 12.167 -76.833 36.5 -104.5s58.166 -41.834 101.499 -42.501h61v-67h-58c-16.667 0 -33.667 3.16699 -51 9.5
s-33.833 14.666 -49.5 24.999s-29.834 22.333 -42.501 36s-22.334 27.5 -29.001 41.5c-15.333 -34 -38 -61.167 -68 -81.5s-68 -30.5 -114 -30.5h-77v67h74zM120.003 -133.998c0 -13.333 4.66699 -24.666 14 -33.999s20.666 -14 33.999 -14s24.666 4.66699 33.999 14
s14 20.666 14 33.999s-4.66699 24.666 -14 33.999s-20.666 14 -33.999 14s-24.666 -4.66699 -33.999 -14s-14 -20.666 -14 -33.999zM264.003 -133.998c0 -13.333 4.66699 -24.666 14 -33.999s20.666 -14 33.999 -14s24.666 4.66699 33.999 14s14 20.666 14 33.999
s-4.66699 24.666 -14 33.999s-20.666 14 -33.999 14s-24.666 -4.66699 -33.999 -14s-14 -20.666 -14 -33.999z" />
    <glyph glyph-name="alefmaddaabovefina" unicode="&#x622;" horiz-adv-x="311" arabic-form="final" 
d="M320 0h-66c-54.667 -0 -98.167 16.333 -130.5 49s-48.5 80.667 -48.5 144v551h72v-551c0 -42 9.33301 -73.5 28 -94.5s51 -31.5 97 -31.5h48v-67zM-104 919h60v-41c0 -15.333 5.16699 -27.833 15.5 -37.5s22.833 -14.5 37.5 -14.5c12 0 26.833 4 44.5 12l57 26
c20.333 9.33301 41 18 62 26s41.167 12 60.5 12c32 0 58.667 -10.667 80 -32s32 -48 32 -80v-41h-59v41c0 15.333 -5.16699 28 -15.5 38s-22.833 15 -37.5 15c-12.667 0 -27.667 -4 -45 -12l-56 -26.5c-20 -9.66699 -40.667 -18.5 -62 -26.5s-42 -12 -62 -12
c-15.333 0 -29.833 2.83301 -43.5 8.5s-25.5 13.5 -35.5 23.5s-18 21.833 -24 35.5s-9 28.5 -9 44.5v41z" />
    <glyph glyph-name="alefhamzaabovefina" unicode="&#x623;" horiz-adv-x="311" arabic-form="final" 
d="M320 0h-66c-54.667 -0 -98.167 16.333 -130.5 49s-48.5 80.667 -48.5 144v551h72v-551c0 -42 9.33301 -73.5 28 -94.5s51 -31.5 97 -31.5h48v-67zM11 840l46.001 -0.000976562c-7.33301 7.33301 -12.333 14.666 -15 21.999s-4 17.666 -4 30.999
c0 12.667 2.5 24.5 7.5 35.5s11.667 20.667 20 29s18.166 14.833 29.499 19.5s23.333 7 36 7c15.333 0 29.5 -3.16699 42.5 -9.5s24.167 -15.166 33.5 -26.499l-32 -20c-5.33301 6 -11 9.83301 -17 11.5s-12.333 2.83398 -19 3.50098c-14 0.666992 -26.5 -3.5 -37.5 -12.5
s-16.5 -21.167 -16.5 -36.5s6.5 -28.166 19.5 -38.499s28.167 -15.5 45.5 -15.5h55v-42h-194v42z" />
    <glyph glyph-name="wawhamzafina" unicode="&#x624;" horiz-adv-x="580" arabic-form="final" 
d="M285 401c-23.333 0 -45 -4.33398 -65 -13.001s-37.5 -20.5 -52.5 -35.5s-26.833 -32.667 -35.5 -53s-13 -41.833 -13 -64.5c0 -23.333 4.33301 -45.166 13 -65.499s20.5 -38 35.5 -53s32.5 -27 52.5 -36s41.667 -13.5 65 -13.5h119v201c0 44 -9.5 77.167 -28.5 99.5
s-49.167 33.5 -90.5 33.5zM475 -0.000976562c-2 -37.333 -10.3311 -70.668 -24.998 -100.001s-34 -54.333 -58 -75s-51.833 -36.5 -83.5 -47.5s-65.167 -16.5 -100.5 -16.5c-28.667 0 -60 4 -94 12l18 59c25.333 -5.33301 50.333 -8 75 -8
c27.333 0 52.833 3.83301 76.5 11.5s44.167 19 61.5 34s31.166 33.5 41.499 55.5s16.166 47 17.499 75h-117c-33.333 0 -64.5 5.83301 -93.5 17.5s-54.167 28 -75.5 49s-38.333 45.5 -51 73.5s-19 58.667 -19 92c0 32.667 6.33301 63.5 19 92.5s29.667 54 51 75
s46.5 37.667 75.5 50s60.167 18.5 93.5 18.5c32.667 0 61 -5.33301 85 -16s43.5 -25 58.5 -43s26.167 -39.167 33.5 -63.5s11 -50.166 11 -77.499v-186v-15h114v-67h-114zM158.217 594.62h55.8564c-8.90527 8.91016 -14.9766 17.8203 -18.2148 26.7305
c-3.2373 8.91016 -4.85645 21.4658 -4.85645 37.666c0 15.3896 3.03613 29.7676 9.10742 43.1328s14.166 25.1104 24.2852 35.2363c10.1191 10.125 22.0596 18.0225 35.8223 23.6924c13.7617 5.66992 28.333 8.50488 43.7139 8.50488
c18.6201 0 35.8232 -3.84766 51.6094 -11.542c15.7861 -7.69531 29.3457 -18.4277 40.6787 -32.1982l-38.8574 -24.3008c-6.47656 7.29004 -13.3574 11.9473 -20.6436 13.9717c-7.28613 2.02539 -14.9766 3.44336 -23.0713 4.25293
c-17 0.80957 -32.1787 -4.25293 -45.5361 -15.1885c-13.3574 -10.9346 -20.0361 -25.7168 -20.0361 -44.3467c0 -18.6309 7.89258 -34.2236 23.6787 -46.7793c15.7861 -12.5547 34.2031 -18.832 55.251 -18.832h66.7861v-51.0312h-235.573v51.0312z" />
    <glyph glyph-name="alefhamzabelowfina" unicode="&#x625;" horiz-adv-x="311" arabic-form="final" 
d="M320 0h-66c-54.667 -0 -98.167 16.333 -130.5 49s-48.5 80.667 -48.5 144v551h72v-551c0 -42 9.33301 -73.5 28 -94.5s51 -31.5 97 -31.5h48v-67zM47 -196l46.001 -0.000976562c-7.33301 7.33301 -12.333 14.666 -15 21.999s-4 17.666 -4 30.999
c0 12.667 2.5 24.5 7.5 35.5s11.667 20.667 20 29s18.166 14.833 29.499 19.5s23.333 7 36 7c15.333 0 29.5 -3.16699 42.5 -9.5s24.167 -15.166 33.5 -26.499l-32 -20c-5.33301 6 -11 9.83301 -17 11.5s-12.333 2.83398 -19 3.50098c-14 0.666992 -26.5 -3.5 -37.5 -12.5
s-16.5 -21.167 -16.5 -36.5s6.5 -28.166 19.5 -38.499s28.167 -15.5 45.5 -15.5h55v-42h-194v42z" />
    <glyph glyph-name="hamzakirsehfina" unicode="&#x626;" horiz-adv-x="1140" arabic-form="final" 
d="M340 -81c-46 0.666992 -86.6699 8.66602 -122.003 23.999s-65 36.5 -89 63.5s-42.167 58.833 -54.5 95.5s-18.5 77 -18.5 121v23h72v-17c0 -35.333 4.33301 -67.833 13 -97.5s21.834 -55.334 39.501 -77.001s39.834 -38.5 66.501 -50.5s57.667 -18 93 -18h268
c17.333 0 33.833 4.66699 49.5 14s28.5 20.833 38.5 34.5s16.667 28.334 20 44.001s1 30.167 -7 43.5l-102 172c-14.667 24.667 -21.5 48 -20.5 70s7.83301 41.333 20.5 58s29.667 29.834 51 39.501s45 14.5 71 14.5c32.667 0 63 -9 91 -27s50 -42.667 66 -74l98 -191
c6 -12 13.5 -24.833 22.5 -38.5s19 -26.334 30 -38.001s23.167 -21.334 36.5 -29.001s27.333 -11.5 42 -11.5h34v-67h-33c-16.667 0 -33 3.16699 -49 9.5s-31.167 14.666 -45.5 24.999s-27.5 22.5 -39.5 36.5s-22.333 29 -31 45c-2 4 -5.33301 9.83301 -10 17.5
s-11.667 19.834 -21 36.501l-38 67.5l-61 110.5c-9.33301 17.333 -21.666 33 -36.999 47s-33.666 21 -54.999 21c-20.667 0 -36.834 -2.83301 -48.501 -8.5s-19.5 -13.334 -23.5 -23.001s-4.66699 -21 -2 -34s8.66699 -26.833 18 -41.5l92 -151
c15.333 -25.333 21.5 -52.166 18.5 -80.499s-12.5 -54.166 -28.5 -77.499s-37.167 -42.666 -63.5 -57.999s-55.5 -23 -87.5 -23h-264zM128.212 350.622h55.8564c-8.90527 8.91016 -14.9766 17.8203 -18.2148 26.7305c-3.2373 8.91016 -4.85645 21.4658 -4.85645 37.666
c0 15.3896 3.03613 29.7676 9.10742 43.1328s14.166 25.1104 24.2852 35.2363c10.1191 10.125 22.0596 18.0225 35.8223 23.6924c13.7617 5.66992 28.333 8.50488 43.7139 8.50488c18.6201 0 35.8232 -3.84766 51.6094 -11.542
c15.7861 -7.69531 29.3457 -18.4277 40.6787 -32.1982l-38.8574 -24.3008c-6.47656 7.29004 -13.3574 11.9473 -20.6436 13.9717c-7.28613 2.02539 -14.9766 3.44336 -23.0713 4.25293c-17 0.80957 -32.1787 -4.25293 -45.5361 -15.1885
c-13.3574 -10.9346 -20.0361 -25.7168 -20.0361 -44.3467c0 -18.6309 7.89258 -34.2236 23.6787 -46.7793c15.7861 -12.5547 34.2031 -18.832 55.251 -18.832h66.7861v-51.0312h-235.573v51.0312z" />
    <glyph glyph-name="hamzakirsehini" unicode="&#x626;" horiz-adv-x="311" arabic-form="initial" 
d="M-9 67h48c46 0 78.333 10.5 97 31.5s28 52.5 28 94.5v215h72v-215c0 -63.333 -16.167 -111.333 -48.5 -144s-75.833 -49 -130.5 -49h-66v67zM44.2148 594.623h55.8564c-8.90527 8.91016 -14.9766 17.8203 -18.2148 26.7305
c-3.2373 8.91016 -4.85645 21.4658 -4.85645 37.666c0 15.3896 3.03613 29.7676 9.10742 43.1328s14.166 25.1104 24.2852 35.2363c10.1191 10.125 22.0596 18.0225 35.8223 23.6924c13.7617 5.66992 28.333 8.50488 43.7139 8.50488
c18.6201 0 35.8232 -3.84766 51.6094 -11.542c15.7861 -7.69531 29.3457 -18.4277 40.6787 -32.1982l-38.8574 -24.3008c-6.47656 7.29004 -13.3574 11.9473 -20.6436 13.9717c-7.28613 2.02539 -14.9766 3.44336 -23.0713 4.25293
c-17 0.80957 -32.1787 -4.25293 -45.5361 -15.1885c-13.3574 -10.9346 -20.0361 -25.7168 -20.0361 -44.3467c0 -18.6309 7.89258 -34.2236 23.6787 -46.7793c15.7861 -12.5547 34.2031 -18.832 55.251 -18.832h66.7861v-51.0312h-235.573v51.0312z" />
    <glyph glyph-name="hamzakirsehmedi" unicode="&#x626;" horiz-adv-x="434" arabic-form="medial" 
d="M45 67c28 0 51.3359 5.00195 70.0029 15.002s33.5 23.333 44.5 40s18.833 36.167 23.5 58.5s7 45.5 7 69.5l-1 158h72v-194c0 -42 12.167 -76.833 36.5 -104.5s58.166 -41.834 101.499 -42.501h44v-67h-41c-16.667 0 -33.667 3.16699 -51 9.5
s-33.833 14.666 -49.5 24.999s-29.834 22.333 -42.501 36s-22.334 27.5 -29.001 41.5c-15.333 -34 -38 -61.167 -68 -81.5s-68 -30.5 -114 -30.5h-57v67h54zM101.218 594.625h55.8564c-8.90527 8.91016 -14.9766 17.8203 -18.2148 26.7305
c-3.2373 8.91016 -4.85645 21.4658 -4.85645 37.666c0 15.3896 3.03613 29.7676 9.10742 43.1328s14.166 25.1104 24.2852 35.2363c10.1191 10.125 22.0596 18.0225 35.8223 23.6924c13.7617 5.66992 28.333 8.50488 43.7139 8.50488
c18.6201 0 35.8232 -3.84766 51.6094 -11.542c15.7861 -7.69531 29.3457 -18.4277 40.6787 -32.1982l-38.8574 -24.3008c-6.47656 7.29004 -13.3574 11.9473 -20.6436 13.9717c-7.28613 2.02539 -14.9766 3.44336 -23.0713 4.25293
c-17 0.80957 -32.1787 -4.25293 -45.5361 -15.1885c-13.3574 -10.9346 -20.0361 -25.7168 -20.0361 -44.3467c0 -18.6309 7.89258 -34.2236 23.6787 -46.7793c15.7861 -12.5547 34.2031 -18.832 55.251 -18.832h66.7861v-51.0312h-235.573v51.0312z" />
    <glyph glyph-name="aleffina" unicode="&#x627;" horiz-adv-x="311" arabic-form="final" 
d="M320 0h-66c-54.667 -0 -98.167 16.333 -130.5 49s-48.5 80.667 -48.5 144v551h72v-551c0 -42 9.33301 -73.5 28 -94.5s51 -31.5 97 -31.5h48v-67z" />
    <glyph glyph-name="behfina" unicode="&#x628;" horiz-adv-x="1058" arabic-form="final" 
d="M358 0c-46 0.666992 -86.666 8.66992 -121.999 24.0029s-65 36.5 -89 63.5s-42.167 58.833 -54.5 95.5s-18.5 77 -18.5 121v104h72v-98c0 -35.333 4.33301 -67.833 13 -97.5s21.834 -55.334 39.501 -77.001s39.834 -38.5 66.501 -50.5s57.667 -18 93 -18h95h216
c28 0 51.333 5 70 15s33.5 23.333 44.5 40s18.833 36.167 23.5 58.5s7 45.5 7 69.5l-1 158h72v-194c0 -42 12.167 -76.833 36.5 -104.5s58.166 -41.834 101.499 -42.501h44v-67h-41c-16.667 0 -33.667 3.16699 -51 9.5s-33.833 14.666 -49.5 24.999
s-29.834 22.333 -42.501 36s-22.334 27.5 -29.001 41.5c-15.333 -34 -38 -61.167 -68 -81.5s-68 -30.5 -114 -30.5h-219h-95zM440.001 -133.997c0 13.333 4.66699 24.666 14 33.999s20.666 14 33.999 14s24.666 -4.66699 33.999 -14s14 -20.666 14 -33.999
s-4.66699 -24.666 -14 -33.999s-20.666 -14 -33.999 -14s-24.666 4.66699 -33.999 14s-14 20.666 -14 33.999z" />
    <glyph glyph-name="behini" unicode="&#x628;" horiz-adv-x="311" arabic-form="initial" 
d="M-9 67h48c46 0 78.333 10.5 97 31.5s28 52.5 28 94.5v215h72v-215c0 -63.333 -16.167 -111.333 -48.5 -144s-75.833 -49 -130.5 -49h-66v67zM75 -134c0 13.333 4.66699 24.666 14 33.999s20.666 14 33.999 14s24.666 -4.66699 33.999 -14s14 -20.666 14 -33.999
s-4.66699 -24.666 -14 -33.999s-20.666 -14 -33.999 -14s-24.666 4.66699 -33.999 14s-14 20.666 -14 33.999z" />
    <glyph glyph-name="behmedi" unicode="&#x628;" horiz-adv-x="434" arabic-form="medial" 
d="M45 67c28 0 51.3359 5.00195 70.0029 15.002s33.5 23.333 44.5 40s18.833 36.167 23.5 58.5s7 45.5 7 69.5l-1 158h72v-194c0 -42 12.167 -76.833 36.5 -104.5s58.166 -41.834 101.499 -42.501h44v-67h-41c-16.667 0 -33.667 3.16699 -51 9.5
s-33.833 14.666 -49.5 24.999s-29.834 22.333 -42.501 36s-22.334 27.5 -29.001 41.5c-15.333 -34 -38 -61.167 -68 -81.5s-68 -30.5 -114 -30.5h-57v67h54zM185.003 -133.998c0 13.333 4.66699 24.666 14 33.999s20.666 14 33.999 14s24.666 -4.66699 33.999 -14
s14 -20.666 14 -33.999s-4.66699 -24.666 -14 -33.999s-20.666 -14 -33.999 -14s-24.666 4.66699 -33.999 14s-14 20.666 -14 33.999z" />
    <glyph glyph-name="tehmarboutafina" unicode="&#x629;" horiz-adv-x="693" arabic-form="final" 
d="M126 235c0 -23.333 4.66699 -45.833 14 -67.5s21.833 -40.834 37.5 -57.501s33.834 -30.167 54.501 -40.5s42.667 -15.5 66 -15.5c22.667 0 44.5 5.16699 65.5 15.5s39.333 23.833 55 40.5s28.167 35.834 37.5 57.501s14 44.167 14 67.5c0 22.667 -4.66699 44.5 -14 65.5
s-21.833 39.5 -37.5 55.5s-34 28.833 -55 38.5s-42.833 14.5 -65.5 14.5c-23.333 0 -45.333 -4.83301 -66 -14.5s-38.834 -22.5 -54.501 -38.5s-28.167 -34.5 -37.5 -55.5s-14 -42.833 -14 -65.5zM545 199c0.666992 -8 3.66699 -19.4971 9 -34.4971s13.333 -29.667 24 -44
s24.167 -26.833 40.5 -37.5s36.166 -16 59.499 -16h23v-67h-20c-16.667 0 -33.667 3.16699 -51 9.5s-33.833 14.666 -49.5 24.999s-29.834 22.333 -42.501 36s-22.334 27.5 -29.001 41.5c-22 -36 -51.333 -65 -88 -87s-77 -33 -121 -33c-33.333 0 -64.666 6.5 -93.999 19.5
s-55.333 30.833 -78 53.5s-40.5 48.667 -53.5 78s-19.5 60.666 -19.5 93.999c0 32.667 6.5 63.667 19.5 93s30.833 54.666 53.5 75.999s48.667 38.333 78 51s60.666 19 93.999 19c32.667 0 63.834 -6.33301 93.501 -19s55.834 -29.667 78.501 -51s40.5 -46.666 53.5 -75.999
s19.5 -60.333 19.5 -93c0 -7.33301 -0.166992 -13.833 -0.5 -19.5s-0.166016 -11.834 0.500977 -18.501zM177 611.003c0 13.333 4.66699 24.666 14 33.999s20.666 14 33.999 14s24.666 -4.66699 33.999 -14s14 -20.666 14 -33.999s-4.66699 -24.666 -14 -33.999
s-20.666 -14 -33.999 -14s-24.666 4.66699 -33.999 14s-14 20.666 -14 33.999zM321 611.003c0 13.333 4.66699 24.666 14 33.999s20.666 14 33.999 14s24.666 -4.66699 33.999 -14s14 -20.666 14 -33.999s-4.66699 -24.666 -14 -33.999s-20.666 -14 -33.999 -14
s-24.666 4.66699 -33.999 14s-14 20.666 -14 33.999z" />
    <glyph glyph-name="tafina" unicode="&#x62a;" horiz-adv-x="1058" arabic-form="final" 
d="M358 0c-46 0.666992 -86.666 8.66992 -121.999 24.0029s-65 36.5 -89 63.5s-42.167 58.833 -54.5 95.5s-18.5 77 -18.5 121v104h72v-98c0 -35.333 4.33301 -67.833 13 -97.5s21.834 -55.334 39.501 -77.001s39.834 -38.5 66.501 -50.5s57.667 -18 93 -18h95h216
c28 0 51.333 5 70 15s33.5 23.333 44.5 40s18.833 36.167 23.5 58.5s7 45.5 7 69.5l-1 158h72v-194c0 -42 12.167 -76.833 36.5 -104.5s58.166 -41.834 101.499 -42.501h44v-67h-41c-16.667 0 -33.667 3.16699 -51 9.5s-33.833 14.666 -49.5 24.999
s-29.834 22.333 -42.501 36s-22.334 27.5 -29.001 41.5c-15.333 -34 -38 -61.167 -68 -81.5s-68 -30.5 -114 -30.5h-219h-95zM360.001 612.003c0 13.333 4.66699 24.666 14 33.999s20.666 14 33.999 14s24.666 -4.66699 33.999 -14s14 -20.666 14 -33.999
s-4.66699 -24.666 -14 -33.999s-20.666 -14 -33.999 -14s-24.666 4.66699 -33.999 14s-14 20.666 -14 33.999zM504.001 612.003c0 13.333 4.66699 24.666 14 33.999s20.666 14 33.999 14s24.666 -4.66699 33.999 -14s14 -20.666 14 -33.999s-4.66699 -24.666 -14 -33.999
s-20.666 -14 -33.999 -14s-24.666 4.66699 -33.999 14s-14 20.666 -14 33.999z" />
    <glyph glyph-name="taini" unicode="&#x62a;" horiz-adv-x="311" arabic-form="initial" 
d="M-9 67h48c46 0 78.333 10.5 97 31.5s28 52.5 28 94.5v215h72v-215c0 -63.333 -16.167 -111.333 -48.5 -144s-75.833 -49 -130.5 -49h-66v67zM2 612c0 13.333 4.66699 24.666 14 33.999s20.666 14 33.999 14s24.666 -4.66699 33.999 -14s14 -20.666 14 -33.999
s-4.66699 -24.666 -14 -33.999s-20.666 -14 -33.999 -14s-24.666 4.66699 -33.999 14s-14 20.666 -14 33.999zM146 612c0 13.333 4.66699 24.666 14 33.999s20.666 14 33.999 14s24.666 -4.66699 33.999 -14s14 -20.666 14 -33.999s-4.66699 -24.666 -14 -33.999
s-20.666 -14 -33.999 -14s-24.666 4.66699 -33.999 14s-14 20.666 -14 33.999z" />
    <glyph glyph-name="tamedi" unicode="&#x62a;" horiz-adv-x="434" arabic-form="medial" 
d="M45 67c28 0 51.3359 5.00195 70.0029 15.002s33.5 23.333 44.5 40s18.833 36.167 23.5 58.5s7 45.5 7 69.5l-1 158h72v-194c0 -42 12.167 -76.833 36.5 -104.5s58.166 -41.834 101.499 -42.501h44v-67h-41c-16.667 0 -33.667 3.16699 -51 9.5
s-33.833 14.666 -49.5 24.999s-29.834 22.333 -42.501 36s-22.334 27.5 -29.001 41.5c-15.333 -34 -38 -61.167 -68 -81.5s-68 -30.5 -114 -30.5h-57v67h54zM107.003 612.002c0 13.333 4.66699 24.666 14 33.999s20.666 14 33.999 14s24.666 -4.66699 33.999 -14
s14 -20.666 14 -33.999s-4.66699 -24.666 -14 -33.999s-20.666 -14 -33.999 -14s-24.666 4.66699 -33.999 14s-14 20.666 -14 33.999zM251.003 612.002c0 13.333 4.66699 24.666 14 33.999s20.666 14 33.999 14s24.666 -4.66699 33.999 -14s14 -20.666 14 -33.999
s-4.66699 -24.666 -14 -33.999s-20.666 -14 -33.999 -14s-24.666 4.66699 -33.999 14s-14 20.666 -14 33.999z" />
    <glyph glyph-name="thafina" unicode="&#x62b;" horiz-adv-x="1058" arabic-form="final" 
d="M358 0c-46 0.666992 -86.666 8.66992 -121.999 24.0029s-65 36.5 -89 63.5s-42.167 58.833 -54.5 95.5s-18.5 77 -18.5 121v104h72v-98c0 -35.333 4.33301 -67.833 13 -97.5s21.834 -55.334 39.501 -77.001s39.834 -38.5 66.501 -50.5s57.667 -18 93 -18h95h216
c28 0 51.333 5 70 15s33.5 23.333 44.5 40s18.833 36.167 23.5 58.5s7 45.5 7 69.5l-1 158h72v-194c0 -42 12.167 -76.833 36.5 -104.5s58.166 -41.834 101.499 -42.501h44v-67h-41c-16.667 0 -33.667 3.16699 -51 9.5s-33.833 14.666 -49.5 24.999
s-29.834 22.333 -42.501 36s-22.334 27.5 -29.001 41.5c-15.333 -34 -38 -61.167 -68 -81.5s-68 -30.5 -114 -30.5h-219h-95zM433.001 730.003c0 13.333 4.66699 24.666 14 33.999s20.666 14 33.999 14s24.666 -4.66699 33.999 -14s14 -20.666 14 -33.999
s-4.66699 -24.666 -14 -33.999s-20.666 -14 -33.999 -14s-24.666 4.66699 -33.999 14s-14 20.666 -14 33.999zM363.001 610.003c0 13.333 4.66699 24.666 14 33.999s20.666 14 33.999 14s24.666 -4.66699 33.999 -14s14 -20.666 14 -33.999s-4.66699 -24.666 -14 -33.999
s-20.666 -14 -33.999 -14s-24.666 4.66699 -33.999 14s-14 20.666 -14 33.999zM507.001 610.003c0 13.333 4.66699 24.666 14 33.999s20.666 14 33.999 14s24.666 -4.66699 33.999 -14s14 -20.666 14 -33.999s-4.66699 -24.666 -14 -33.999s-20.666 -14 -33.999 -14
s-24.666 4.66699 -33.999 14s-14 20.666 -14 33.999z" />
    <glyph glyph-name="thaini" unicode="&#x62b;" horiz-adv-x="311" arabic-form="initial" 
d="M-9 67h48c46 0 78.333 10.5 97 31.5s28 52.5 28 94.5v215h72v-215c0 -63.333 -16.167 -111.333 -48.5 -144s-75.833 -49 -130.5 -49h-66v67zM82 730c0 13.333 4.66699 24.666 14 33.999s20.666 14 33.999 14s24.666 -4.66699 33.999 -14s14 -20.666 14 -33.999
s-4.66699 -24.666 -14 -33.999s-20.666 -14 -33.999 -14s-24.666 4.66699 -33.999 14s-14 20.666 -14 33.999zM12 610c0 13.333 4.66699 24.666 14 33.999s20.666 14 33.999 14s24.666 -4.66699 33.999 -14s14 -20.666 14 -33.999s-4.66699 -24.666 -14 -33.999
s-20.666 -14 -33.999 -14s-24.666 4.66699 -33.999 14s-14 20.666 -14 33.999zM156 610c0 13.333 4.66699 24.666 14 33.999s20.666 14 33.999 14s24.666 -4.66699 33.999 -14s14 -20.666 14 -33.999s-4.66699 -24.666 -14 -33.999s-20.666 -14 -33.999 -14
s-24.666 4.66699 -33.999 14s-14 20.666 -14 33.999z" />
    <glyph glyph-name="thamedi" unicode="&#x62b;" horiz-adv-x="434" arabic-form="medial" 
d="M45 67c28 0 51.3359 5.00195 70.0029 15.002s33.5 23.333 44.5 40s18.833 36.167 23.5 58.5s7 45.5 7 69.5l-1 158h72v-194c0 -42 12.167 -76.833 36.5 -104.5s58.166 -41.834 101.499 -42.501h44v-67h-41c-16.667 0 -33.667 3.16699 -51 9.5
s-33.833 14.666 -49.5 24.999s-29.834 22.333 -42.501 36s-22.334 27.5 -29.001 41.5c-15.333 -34 -38 -61.167 -68 -81.5s-68 -30.5 -114 -30.5h-57v67h54zM169.003 730.002c0 13.333 4.66699 24.666 14 33.999s20.666 14 33.999 14s24.666 -4.66699 33.999 -14
s14 -20.666 14 -33.999s-4.66699 -24.666 -14 -33.999s-20.666 -14 -33.999 -14s-24.666 4.66699 -33.999 14s-14 20.666 -14 33.999zM99.0029 610.002c0 13.333 4.66699 24.666 14 33.999s20.666 14 33.999 14s24.666 -4.66699 33.999 -14s14 -20.666 14 -33.999
s-4.66699 -24.666 -14 -33.999s-20.666 -14 -33.999 -14s-24.666 4.66699 -33.999 14s-14 20.666 -14 33.999zM243.003 610.002c0 13.333 4.66699 24.666 14 33.999s20.666 14 33.999 14s24.666 -4.66699 33.999 -14s14 -20.666 14 -33.999s-4.66699 -24.666 -14 -33.999
s-20.666 -14 -33.999 -14s-24.666 4.66699 -33.999 14s-14 20.666 -14 33.999z" />
    <glyph glyph-name="jeemfina" unicode="&#x62c;" horiz-adv-x="791" arabic-form="final" 
d="M157 438c24.667 24 53.001 42.833 85.001 56.5s66.333 20.5 103 20.5c37.333 0 72.5 -7 105.5 -21s62 -33.333 87 -58s44.833 -53.334 59.5 -86.001s22 -67.667 22 -105v-31c0 -50.667 12 -87.667 36 -111s57.667 -35.333 101 -36h44v-67h-58
c-14.667 0 -30.834 2.33301 -48.501 7s-34.667 11.167 -51 19.5s-31 18.333 -44 30s-22.5 24.5 -28.5 38.5h-220h2c-28 0 -53.333 -3 -76 -9s-42.334 -15.5 -59.001 -28.5s-29.5 -29.5 -38.5 -49.5s-13.5 -44 -13.5 -72s4.5 -52 13.5 -72s21.833 -36.5 38.5 -49.5
s36.334 -22.5 59.001 -28.5s48 -9 76 -9c35.333 0 66.333 4.66699 93 14s48 24.333 64 45l50 -45c-22.667 -27.333 -51.667 -47.666 -87 -60.999s-75.333 -20 -120 -20c-37.333 0 -71.5 4.83301 -102.5 14.5s-57.667 24 -80 43s-39.833 42.5 -52.5 70.5s-19 60.667 -19 98
s6.33301 70 19 98s30.167 51.5 52.5 70.5s49 33.333 80 43s65.167 14.5 102.5 14.5h199l-2 12c-0.666992 3.33301 -1 6.83301 -1 10.5v10.5v50c0 28 -5.33301 54.333 -16 79s-25.167 46.167 -43.5 64.5s-39.833 32.833 -64.5 43.5s-51 16 -79 16
s-54.167 -5.16699 -78.5 -15.5s-45.833 -24.833 -64.5 -43.5zM339.001 -32c0 13.333 4.66699 24.666 14 33.999s20.666 14 33.999 14s24.666 -4.66699 33.999 -14s14 -20.666 14 -33.999s-4.66699 -24.666 -14 -33.999s-20.666 -14 -33.999 -14s-24.666 4.66699 -33.999 14
s-14 20.666 -14 33.999z" />
    <glyph glyph-name="jeemini" unicode="&#x62c;" horiz-adv-x="602" arabic-form="initial" 
d="M74 397c24.667 24.667 53 44.001 85 58.001s66.667 21 104 21s72.5 -7 105.5 -21s62 -33.333 87 -58s44.833 -53.334 59.5 -86.001s22 -67.667 22 -105v-206h-546v67h475v139c0 28 -5.33301 54.333 -16 79s-25.167 46.167 -43.5 64.5s-39.833 32.833 -64.5 43.5
s-51 16 -79 16c-28.667 0 -55.5 -5.5 -80.5 -16.5s-46.833 -26.167 -65.5 -45.5zM272 -132.999c0 13.333 4.66699 24.666 14 33.999s20.666 14 33.999 14s24.666 -4.66699 33.999 -14s14 -20.666 14 -33.999s-4.66699 -24.666 -14 -33.999s-20.666 -14 -33.999 -14
s-24.666 4.66699 -33.999 14s-14 20.666 -14 33.999z" />
    <glyph glyph-name="jeemmedi" unicode="&#x62c;" horiz-adv-x="577" arabic-form="medial" 
d="M72 400c24 23.333 52.167 41.833 84.5 55.5s66.5 20.5 102.5 20.5c37.333 0 72.5 -7 105.5 -21s62 -33.333 87 -58s44.833 -53.334 59.5 -86.001s22 -67.667 22 -105v-139h53v-67h-595v67h471v139c0 28 -5.33301 54.333 -16 79s-25.167 46.167 -43.5 64.5
s-39.833 32.833 -64.5 43.5s-51 16 -79 16c-29.333 0 -56.5 -5.66699 -81.5 -17s-46.833 -26.666 -65.5 -45.999zM272 -133c0 13.333 4.66699 24.666 14 33.999s20.666 14 33.999 14s24.666 -4.66699 33.999 -14s14 -20.666 14 -33.999s-4.66699 -24.666 -14 -33.999
s-20.666 -14 -33.999 -14s-24.666 4.66699 -33.999 14s-14 20.666 -14 33.999z" />
    <glyph glyph-name="haafina" unicode="&#x62d;" horiz-adv-x="826" arabic-form="final" 
d="M192 438c24.667 24 53.001 42.833 85.001 56.5s66.333 20.5 103 20.5c37.333 0 72.5 -7 105.5 -21s62 -33.333 87 -58s44.833 -53.334 59.5 -86.001s22 -67.667 22 -105v-31c0 -50.667 12 -87.667 36 -111s57.667 -35.333 101 -36h44v-67h-58
c-14.667 0 -30.834 2.33301 -48.501 7s-34.667 11.167 -51 19.5s-31 18.333 -44 30s-22.5 24.5 -28.5 38.5h-220h2c-28 0 -53.333 -3 -76 -9s-42.334 -15.5 -59.001 -28.5s-29.5 -29.5 -38.5 -49.5s-13.5 -44 -13.5 -72s4.5 -52 13.5 -72s21.833 -36.5 38.5 -49.5
s36.334 -22.5 59.001 -28.5s48 -9 76 -9c35.333 0 66.333 4.66699 93 14s48 24.333 64 45l50 -45c-22.667 -27.333 -51.667 -47.666 -87 -60.999s-75.333 -20 -120 -20c-37.333 0 -71.5 4.83301 -102.5 14.5s-57.667 24 -80 43s-39.833 42.5 -52.5 70.5s-19 60.667 -19 98
s6.33301 70 19 98s30.167 51.5 52.5 70.5s49 33.333 80 43s65.167 14.5 102.5 14.5h199l-2 12c-0.666992 3.33301 -1 6.83301 -1 10.5v10.5v50c0 28 -5.33301 54.333 -16 79s-25.167 46.167 -43.5 64.5s-39.833 32.833 -64.5 43.5s-51 16 -79 16
s-54.167 -5.16699 -78.5 -15.5s-45.833 -24.833 -64.5 -43.5z" />
    <glyph glyph-name="haaini" unicode="&#x62d;" horiz-adv-x="602" arabic-form="initial" 
d="M74 397c24.667 24.667 53 44.001 85 58.001s66.667 21 104 21s72.5 -7 105.5 -21s62 -33.333 87 -58s44.833 -53.334 59.5 -86.001s22 -67.667 22 -105v-206h-546v67h475v139c0 28 -5.33301 54.333 -16 79s-25.167 46.167 -43.5 64.5s-39.833 32.833 -64.5 43.5
s-51 16 -79 16c-28.667 0 -55.5 -5.5 -80.5 -16.5s-46.833 -26.167 -65.5 -45.5z" />
    <glyph glyph-name="haamedi" unicode="&#x62d;" horiz-adv-x="577" arabic-form="medial" 
d="M72 400c24 23.333 52.167 41.833 84.5 55.5s66.5 20.5 102.5 20.5c37.333 0 72.5 -7 105.5 -21s62 -33.333 87 -58s44.833 -53.334 59.5 -86.001s22 -67.667 22 -105v-139h53v-67h-595v67h471v139c0 28 -5.33301 54.333 -16 79s-25.167 46.167 -43.5 64.5
s-39.833 32.833 -64.5 43.5s-51 16 -79 16c-29.333 0 -56.5 -5.66699 -81.5 -17s-46.833 -26.666 -65.5 -45.999z" />
    <glyph glyph-name="khafina" unicode="&#x62e;" horiz-adv-x="791" arabic-form="final" 
d="M157 438c24.667 24 53.001 42.833 85.001 56.5s66.333 20.5 103 20.5c37.333 0 72.5 -7 105.5 -21s62 -33.333 87 -58s44.833 -53.334 59.5 -86.001s22 -67.667 22 -105v-31c0 -50.667 12 -87.667 36 -111s57.667 -35.333 101 -36h44v-67h-58
c-14.667 0 -30.834 2.33301 -48.501 7s-34.667 11.167 -51 19.5s-31 18.333 -44 30s-22.5 24.5 -28.5 38.5h-220h2c-28 0 -53.333 -3 -76 -9s-42.334 -15.5 -59.001 -28.5s-29.5 -29.5 -38.5 -49.5s-13.5 -44 -13.5 -72s4.5 -52 13.5 -72s21.833 -36.5 38.5 -49.5
s36.334 -22.5 59.001 -28.5s48 -9 76 -9c35.333 0 66.333 4.66699 93 14s48 24.333 64 45l50 -45c-22.667 -27.333 -51.667 -47.666 -87 -60.999s-75.333 -20 -120 -20c-37.333 0 -71.5 4.83301 -102.5 14.5s-57.667 24 -80 43s-39.833 42.5 -52.5 70.5s-19 60.667 -19 98
s6.33301 70 19 98s30.167 51.5 52.5 70.5s49 33.333 80 43s65.167 14.5 102.5 14.5h199l-2 12c-0.666992 3.33301 -1 6.83301 -1 10.5v10.5v50c0 28 -5.33301 54.333 -16 79s-25.167 46.167 -43.5 64.5s-39.833 32.833 -64.5 43.5s-51 16 -79 16
s-54.167 -5.16699 -78.5 -15.5s-45.833 -24.833 -64.5 -43.5zM309.001 643c0 13.333 4.66699 24.666 14 33.999s20.666 14 33.999 14s24.666 -4.66699 33.999 -14s14 -20.666 14 -33.999s-4.66699 -24.666 -14 -33.999s-20.666 -14 -33.999 -14s-24.666 4.66699 -33.999 14
s-14 20.666 -14 33.999z" />
    <glyph glyph-name="khaini" unicode="&#x62e;" horiz-adv-x="602" arabic-form="initial" 
d="M74 397c24.667 24.667 53 44.001 85 58.001s66.667 21 104 21s72.5 -7 105.5 -21s62 -33.333 87 -58s44.833 -53.334 59.5 -86.001s22 -67.667 22 -105v-206h-546v67h475v139c0 28 -5.33301 54.333 -16 79s-25.167 46.167 -43.5 64.5s-39.833 32.833 -64.5 43.5
s-51 16 -79 16c-28.667 0 -55.5 -5.5 -80.5 -16.5s-46.833 -26.167 -65.5 -45.5zM234 612.001c0 13.333 4.66699 24.666 14 33.999s20.666 14 33.999 14s24.666 -4.66699 33.999 -14s14 -20.666 14 -33.999s-4.66699 -24.666 -14 -33.999s-20.666 -14 -33.999 -14
s-24.666 4.66699 -33.999 14s-14 20.666 -14 33.999z" />
    <glyph glyph-name="khamedi" unicode="&#x62e;" horiz-adv-x="577" arabic-form="medial" 
d="M72 400c24 23.333 52.167 41.833 84.5 55.5s66.5 20.5 102.5 20.5c37.333 0 72.5 -7 105.5 -21s62 -33.333 87 -58s44.833 -53.334 59.5 -86.001s22 -67.667 22 -105v-139h53v-67h-595v67h471v139c0 28 -5.33301 54.333 -16 79s-25.167 46.167 -43.5 64.5
s-39.833 32.833 -64.5 43.5s-51 16 -79 16c-29.333 0 -56.5 -5.66699 -81.5 -17s-46.833 -26.666 -65.5 -45.999zM233 612c0 13.333 4.66699 24.666 14 33.999s20.666 14 33.999 14s24.666 -4.66699 33.999 -14s14 -20.666 14 -33.999s-4.66699 -24.666 -14 -33.999
s-20.666 -14 -33.999 -14s-24.666 4.66699 -33.999 14s-14 20.666 -14 33.999z" />
    <glyph glyph-name="dalfina" unicode="&#x62f;" horiz-adv-x="588" arabic-form="final" 
d="M514 67l82.999 -0.000976562v-67h-512v67h358v131c0 28 -5.16699 54.333 -15.5 79s-24.333 46.334 -42 65.001s-38.667 33.334 -63 44.001s-50.5 16 -78.5 16h-30v66h30c37.333 0 72.333 -7 105 -21s61.334 -33.333 86.001 -58s44 -53.334 58 -86.001s21 -67.667 21 -105
v-131z" />
    </font>
</defs>
</svg>
