<?xml version="1.0" standalone="no"?>
<!DOCTYPE svg PUBLIC "-//W3C//DTD SVG 1.1//EN" "http://www.w3.org/Graphics/SVG/1.1/DTD/svg11.dtd" >
<svg xmlns="http://www.w3.org/2000/svg" xmlns:xlink="http://www.w3.org/1999/xlink" version="1.1">
<metadata>
Created by FontForge 20161003 at Sun Mar  5 12:04:56 2017
 By www-data
Contemporary bi-script Arabic Latin Typeface. Arabic letters are designed by Pascal Zoghbi while the Latin letters are designed by Ian Party. 
</metadata>
<defs>
<font id="29LTBukra-Medium" horiz-adv-x="0" >
  <font-face 
    font-family="29LT Bukra"
    font-weight="500"
    font-stretch="normal"
    units-per-em="1000"
    panose-1="2 11 9 3 2 2 4 2 2 4"
    ascent="825"
    descent="-175"
    x-height="563"
    cap-height="811"
    bbox="-151 -341 1501 1046"
    underline-thickness="50"
    underline-position="-100"
    stemh="206"
    stemv="258"
    unicode-range="U+0020-FEFC"
  />
<missing-glyph horiz-adv-x="500" 
 />
    <glyph glyph-name="uni06440627" unicode="&#xfedf;&#xfe8e;" horiz-adv-x="746" arabic-form="isolated" 
d="M72 0l-17 140h285c45 0 85 11 113 34c27 23 42 55 42 104v607h205v-140h-65v-462c0 -82 -24 -164 -75 -211c-57 -52 -142 -72 -249 -72h-239zM197 190v527h140v-527h-140z" />
    <glyph glyph-name="uni06440627.fina" unicode="&#xfee0;&#xfe8e;" horiz-adv-x="748" arabic-form="final" 
d="M72 0l-17 140h285c45 0 85 11 113 34c27 23 42 55 42 104v607h205v-140h-65v-462c0 -32 -4 -63 -11 -92c31 -35 77 -51 144 -51v-140c-122 0 -165 53 -185 97c-7 -9 -15 -18 -23 -25c-57 -52 -142 -72 -249 -72h-239zM197 190v527h140v-527h-140z" />
    <glyph glyph-name="uni06440623" unicode="&#xfedf;&#xfe84;" horiz-adv-x="746" arabic-form="isolated" 
d="M72 0l-17 140h285c45 0 85 11 113 34c27 23 42 55 42 104v607h205v-140h-65v-462c0 -82 -24 -164 -75 -211c-57 -52 -142 -72 -249 -72h-239zM197 190v527h140v-527h-140zM139 769v46c0 90 48 124 126 124h50v-45h-42c-40 0 -54 -18 -54 -50h128v-75h-208z" />
    <glyph glyph-name="uni06440623.fina" unicode="&#xfee0;&#xfe84;" horiz-adv-x="748" arabic-form="final" 
d="M72 0l-17 140h285c45 0 85 11 113 34c27 23 42 55 42 104v607h205v-140h-65v-462c0 -32 -4 -63 -11 -92c31 -35 77 -51 144 -51v-140c-122 0 -165 53 -185 97c-7 -9 -15 -18 -23 -25c-57 -52 -142 -72 -249 -72h-239zM197 190v527h140v-527h-140zM139 769v46
c0 90 48 124 126 124h50v-45h-42c-40 0 -54 -18 -54 -50h128v-75h-208z" />
    <glyph glyph-name="uni06440625" unicode="&#xfedf;&#xfe88;" horiz-adv-x="746" arabic-form="isolated" 
d="M265 -247c-78 0 -126 34 -126 124v46h208v-75h-128c0 -32 14 -50 54 -50h42v-45h-50zM72 0l-17 140h285c45 0 85 11 113 34c27 23 42 55 42 104v607h205v-140h-65v-462c0 -82 -24 -164 -75 -211c-57 -52 -142 -72 -249 -72h-239zM197 190v527h140v-527h-140z" />
    <glyph glyph-name="uni06440625.fina" unicode="&#xfee0;&#xfe88;" horiz-adv-x="748" arabic-form="final" 
d="M72 0l-17 140h285c45 0 85 11 113 34c27 23 42 55 42 104v607h205v-140h-65v-462c0 -32 -4 -63 -11 -92c31 -35 77 -51 144 -51v-140c-122 0 -165 53 -185 97c-7 -9 -15 -18 -23 -25c-57 -52 -142 -72 -249 -72h-239zM197 190v527h140v-527h-140zM265 -247
c-78 0 -126 34 -126 124v46h208v-75h-128c0 -32 14 -50 54 -50h42v-45h-50z" />
    <glyph glyph-name="uni06440622" unicode="&#xfedf;&#xfe82;" horiz-adv-x="746" arabic-form="isolated" 
d="M72 0l-17 140h285c45 0 85 11 113 34c27 23 42 55 42 104v607h205v-140h-65v-462c0 -82 -24 -164 -75 -211c-57 -52 -142 -72 -249 -72h-239zM197 190v527h140v-527h-140zM107 769v65h273v-65h-273z" />
    <glyph glyph-name="uni06440622.fina" unicode="&#xfee0;&#xfe82;" horiz-adv-x="748" arabic-form="final" 
d="M72 0l-17 140h285c45 0 85 11 113 34c27 23 42 55 42 104v607h205v-140h-65v-462c0 -32 -4 -63 -11 -92c31 -35 77 -51 144 -51v-140c-122 0 -165 53 -185 97c-7 -9 -15 -18 -23 -25c-57 -52 -142 -72 -249 -72h-239zM197 190v527h140v-527h-140zM109 769v65h273v-65
h-273z" />
    <glyph glyph-name="uni06440671" unicode="&#xfedf;&#xfb51;" horiz-adv-x="719" 
d="M72 0l-17 140h285c45 0 85 11 113 34c27 23 42 55 42 104v607h205v-140h-65v-462c0 -82 -24 -164 -75 -211c-57 -52 -142 -72 -249 -72h-239zM197 190v527h140v-527h-140zM126 744v55h69c0 47 34 92 91 92c68 0 113 -36 113 -108v-39h-273zM284 846
c-30 0 -44 -22 -44 -47h89c0 24 -14 47 -45 47z" />
    <glyph glyph-name="uni06440671.fina" unicode="&#xfee0;&#xfb51;" horiz-adv-x="746" 
d="M72 0l-17 140h285c45 0 85 11 113 34c27 23 42 55 42 104v607h205v-140h-65v-462c0 -32 -4 -63 -11 -92c31 -35 77 -51 144 -51v-140c-122 0 -165 53 -185 97c-7 -9 -15 -18 -23 -25c-57 -52 -142 -72 -249 -72h-239zM197 190v527h140v-527h-140zM126 744v55h69
c0 47 34 92 91 92c68 0 113 -36 113 -108v-39h-273zM284 846c-30 0 -44 -22 -44 -47h89c0 24 -14 47 -45 47z" />
    <glyph glyph-name="uni0621" unicode="&#x621;" horiz-adv-x="543" arabic-form="isolated" 
d="M73 0v191c0 203 103 300 280 300h90v-140h-119c-66 0 -111 -49 -111 -133v-78h274v-140h-414z" />
    <glyph glyph-name="uni0627" unicode="&#x627;" horiz-adv-x="345" arabic-form="isolated" 
d="M130 0v811h140v-811h-140z" />
    <glyph glyph-name="uni0627.fina" unicode="&#x627;" horiz-adv-x="378" arabic-form="final" 
d="M130 0v811h140v-671h128v-140h-268z" />
    <glyph glyph-name="uni0623" unicode="&#x623;" horiz-adv-x="357" arabic-form="isolated" 
d="M145 0v690h140v-690h-140zM110 735v46c0 90 48 124 126 124h50v-45h-42c-40 0 -54 -18 -54 -50h128v-75h-208z" />
    <glyph glyph-name="uni0623.fina" unicode="&#x623;" horiz-adv-x="393" arabic-form="final" 
d="M110 735v46c0 90 48 124 126 124h50v-45h-42c-40 0 -54 -18 -54 -50h128v-75h-208zM145 0v690h140v-550h128v-140h-268z" />
    <glyph glyph-name="uni0625" unicode="&#x625;" horiz-adv-x="352" arabic-form="isolated" 
d="M236 -219c-78 0 -126 34 -126 124v46h208v-75h-128c0 -32 14 -50 54 -50h42v-45h-50zM145 0v811h140v-811h-140z" />
    <glyph glyph-name="uni0625.fina" unicode="&#x625;" horiz-adv-x="389" arabic-form="final" 
d="M236 -219c-78 0 -126 34 -126 124v46h208v-75h-128c0 -32 14 -50 54 -50h42v-45h-50zM141 0v811h140v-671h128v-140h-268z" />
    <glyph glyph-name="uni0622" unicode="&#x622;" horiz-adv-x="346" arabic-form="isolated" 
d="M134 0v690h140v-690h-140zM70 735v65h273v-65h-273z" />
    <glyph glyph-name="uni0622.fina" unicode="&#x622;" horiz-adv-x="385" arabic-form="final" 
d="M137 0v690h140v-550h128v-140h-268zM70 735v65h273v-65h-273z" />
    <glyph glyph-name="uni0671" unicode="&#x671;" horiz-adv-x="343" arabic-form="isolated" 
d="M134 0v690h140v-690h-140zM70 735v55h69c0 47 34 92 91 92c68 0 113 -36 113 -108v-39h-273zM228 837c-30 0 -44 -22 -44 -47h89c0 24 -14 47 -45 47z" />
    <glyph glyph-name="uni0671.fina" unicode="&#x671;" horiz-adv-x="384" arabic-form="final" 
d="M136 0v690h140v-550h128v-140h-268zM70 735v55h69c0 47 34 92 91 92c68 0 113 -36 113 -108v-39h-273zM228 837c-30 0 -44 -22 -44 -47h89c0 24 -14 47 -45 47z" />
    <glyph glyph-name="uni066E.init" unicode="&#x66e;" horiz-adv-x="324" 
d="M0 0v140h124v423h140v-563h-264z" />
    <glyph glyph-name="uni066E.medi" unicode="&#x66e;" horiz-adv-x="352" 
d="M0 0v140h124v423h140v-423h107v-140h-371z" />
    <glyph glyph-name="uni066E.fina" unicode="&#x66e;" horiz-adv-x="891" 
d="M372 0c-119 0 -193 24 -254 82c-49 46 -67 126 -67 207v189h140v-172c0 -59 11 -102 42 -128c34 -29 90 -38 149 -38h280v423h140v-423h108v-140h-538z" />
    <glyph glyph-name="uni0628" unicode="&#x628;" horiz-adv-x="863" arabic-form="isolated" 
d="M372 0c-119 0 -193 24 -254 82c-49 46 -67 126 -67 207v189h140v-172c0 -59 11 -102 42 -128c34 -29 90 -38 149 -38h280v423h140v-563h-430zM472 -213c-44 0 -82 26 -82 75c0 44 36 74 82 74c47 0 82 -30 82 -74c0 -49 -38 -75 -82 -75z" />
    <glyph glyph-name="uni0628.init" unicode="&#x628;" horiz-adv-x="324" arabic-form="initial" 
d="M196 -213c-44 0 -82 26 -82 75c0 44 36 74 82 74c47 0 82 -30 82 -74c0 -49 -38 -75 -82 -75zM0 0v140h124v423h140v-563h-264z" />
    <glyph glyph-name="uni0628.medi" unicode="&#x628;" horiz-adv-x="352" arabic-form="medial" 
d="M0 0v140h124v423h140v-423h107v-140h-371zM194 -213c-44 0 -82 26 -82 75c0 44 36 74 82 74c47 0 82 -30 82 -74c0 -49 -38 -75 -82 -75z" />
    <glyph glyph-name="uni0628.fina" unicode="&#x628;" horiz-adv-x="891" arabic-form="final" 
d="M372 0c-119 0 -193 24 -254 82c-49 46 -67 126 -67 207v189h140v-172c0 -59 11 -102 42 -128c34 -29 90 -38 149 -38h280v423h140v-423h108v-140h-538zM479 -213c-44 0 -82 26 -82 75c0 44 36 74 82 74c47 0 82 -30 82 -74c0 -49 -38 -75 -82 -75z" />
    <glyph glyph-name="uni067E" unicode="&#x67e;" horiz-adv-x="863" arabic-form="isolated" 
d="M372 0c-119 0 -193 24 -254 82c-49 46 -67 126 -67 207v189h140v-172c0 -59 11 -102 42 -128c34 -29 90 -38 149 -38h280v423h140v-563h-430zM382 -206c-40 0 -75 24 -75 70c0 40 32 68 75 68s76 -28 76 -68c0 -46 -36 -70 -76 -70zM488 -341c-35 0 -67 21 -67 61
c0 36 28 61 67 61s67 -25 67 -61c0 -40 -31 -61 -67 -61zM594 -206c-40 0 -75 24 -75 70c0 40 32 68 75 68c44 0 76 -28 76 -68c0 -46 -35 -70 -76 -70z" />
    <glyph glyph-name="uni067E.init" unicode="&#x67e;" horiz-adv-x="424" arabic-form="initial" 
d="M120 -206c-40 0 -75 24 -75 70c0 40 32 68 75 68s76 -28 76 -68c0 -46 -36 -70 -76 -70zM226 -341c-35 0 -67 21 -67 61c0 36 28 61 67 61s67 -25 67 -61c0 -40 -31 -61 -67 -61zM332 -206c-40 0 -75 24 -75 70c0 40 32 68 75 68c44 0 76 -28 76 -68
c0 -46 -35 -70 -76 -70zM0 0v140h209v423h140v-563h-349z" />
    <glyph glyph-name="uni067E.medi" unicode="&#x67e;" horiz-adv-x="513" arabic-form="medial" 
d="M0 0v140h209v423h140v-423h184v-140h-533zM381 -206c-40 0 -75 24 -75 70c0 40 32 68 75 68c44 0 76 -28 76 -68c0 -46 -35 -70 -76 -70zM169 -206c-40 0 -75 24 -75 70c0 40 32 68 75 68s76 -28 76 -68c0 -46 -36 -70 -76 -70zM275 -341c-35 0 -67 21 -67 61
c0 36 28 61 67 61s67 -25 67 -61c0 -40 -31 -61 -67 -61z" />
    <glyph glyph-name="uni067E.fina" unicode="&#x67e;" horiz-adv-x="891" arabic-form="final" 
d="M372 0c-119 0 -193 24 -254 82c-49 46 -67 126 -67 207v189h140v-172c0 -59 11 -102 42 -128c34 -29 90 -38 149 -38h280v423h140v-423h108v-140h-538zM587 -206c-40 0 -75 24 -75 70c0 40 32 68 75 68c44 0 76 -28 76 -68c0 -46 -35 -70 -76 -70zM375 -206
c-40 0 -75 24 -75 70c0 40 32 68 75 68s76 -28 76 -68c0 -46 -36 -70 -76 -70zM481 -341c-35 0 -67 21 -67 61c0 36 28 61 67 61s67 -25 67 -61c0 -40 -31 -61 -67 -61z" />
    <glyph glyph-name="uni062A" unicode="&#x62a;" horiz-adv-x="863" arabic-form="isolated" 
d="M372 0c-119 0 -193 24 -254 82c-49 46 -67 126 -67 207v189h140v-172c0 -59 11 -102 42 -128c34 -29 90 -38 149 -38h280v423h140v-563h-430zM323 595c-42 0 -78 25 -78 72c0 42 34 71 78 71s78 -29 78 -71c0 -47 -36 -72 -78 -72zM540 595c-42 0 -78 25 -78 72
c0 42 34 71 78 71c45 0 78 -29 78 -71c0 -47 -36 -72 -78 -72z" />
    <glyph glyph-name="uni062A.init" unicode="&#x62a;" horiz-adv-x="424" arabic-form="initial" 
d="M0 0v140h209v423h140v-563h-349zM165 648c-42 0 -78 25 -78 72c0 42 34 71 78 71s78 -29 78 -71c0 -47 -36 -72 -78 -72zM382 648c-42 0 -78 25 -78 72c0 42 34 71 78 71c45 0 78 -29 78 -71c0 -47 -36 -72 -78 -72z" />
    <glyph glyph-name="uni062A.medi" unicode="&#x62a;" horiz-adv-x="513" arabic-form="medial" 
d="M0 0v140h209v423h140v-423h184v-140h-533zM381 648c-42 0 -78 25 -78 72c0 42 34 71 78 71c45 0 78 -29 78 -71c0 -47 -36 -72 -78 -72zM164 648c-42 0 -78 25 -78 72c0 42 34 71 78 71s78 -29 78 -71c0 -47 -36 -72 -78 -72z" />
    <glyph glyph-name="uni062A.fina" unicode="&#x62a;" horiz-adv-x="891" arabic-form="final" 
d="M372 0c-119 0 -193 24 -254 82c-49 46 -67 126 -67 207v189h140v-172c0 -59 11 -102 42 -128c34 -29 90 -38 149 -38h280v423h140v-423h108v-140h-538zM547 595c-42 0 -78 25 -78 72c0 42 34 71 78 71c45 0 78 -29 78 -71c0 -47 -36 -72 -78 -72zM330 595
c-42 0 -78 25 -78 72c0 42 34 71 78 71s78 -29 78 -71c0 -47 -36 -72 -78 -72z" />
    <glyph glyph-name="uni062B" unicode="&#x62b;" horiz-adv-x="863" arabic-form="isolated" 
d="M372 0c-119 0 -193 24 -254 82c-49 46 -67 126 -67 207v189h140v-172c0 -59 11 -102 42 -128c34 -29 90 -38 149 -38h280v423h140v-563h-430zM325 591c-40 0 -75 24 -75 70c0 41 32 69 75 69s76 -28 76 -69c0 -46 -36 -70 -76 -70zM431 750c-35 0 -67 21 -67 61
c0 36 28 61 67 61s67 -25 67 -61c0 -40 -31 -61 -67 -61zM537 591c-40 0 -75 24 -75 70c0 41 32 69 75 69c44 0 76 -28 76 -69c0 -46 -35 -70 -76 -70z" />
    <glyph glyph-name="uni062B.init" unicode="&#x62b;" horiz-adv-x="424" arabic-form="initial" 
d="M162 654c-40 0 -75 24 -75 70c0 41 32 69 75 69s76 -28 76 -69c0 -46 -36 -70 -76 -70zM268 813c-35 0 -67 21 -67 61c0 36 28 61 67 61s67 -25 67 -61c0 -40 -31 -61 -67 -61zM374 654c-40 0 -75 24 -75 70c0 41 32 69 75 69c44 0 76 -28 76 -69c0 -46 -35 -70 -76 -70z
M0 0v140h209v423h140v-563h-349z" />
    <glyph glyph-name="uni062B.medi" unicode="&#x62b;" horiz-adv-x="513" arabic-form="medial" 
d="M0 0v140h209v423h140v-423h184v-140h-533zM375 654c-40 0 -75 24 -75 70c0 41 32 69 75 69c44 0 76 -28 76 -69c0 -46 -35 -70 -76 -70zM163 654c-40 0 -75 24 -75 70c0 41 32 69 75 69s76 -28 76 -69c0 -46 -36 -70 -76 -70zM269 813c-35 0 -67 21 -67 61
c0 36 28 61 67 61s67 -25 67 -61c0 -40 -31 -61 -67 -61z" />
    <glyph glyph-name="uni062B.fina" unicode="&#x62b;" horiz-adv-x="891" arabic-form="final" 
d="M372 0c-119 0 -193 24 -254 82c-49 46 -67 126 -67 207v189h140v-172c0 -59 11 -102 42 -128c34 -29 90 -38 149 -38h280v423h140v-423h108v-140h-538zM546 601c-40 0 -75 24 -75 70c0 41 32 69 75 69c44 0 76 -28 76 -69c0 -46 -35 -70 -76 -70zM334 601
c-40 0 -75 24 -75 70c0 41 32 69 75 69s76 -28 76 -69c0 -46 -36 -70 -76 -70zM440 760c-35 0 -67 21 -67 61c0 36 28 61 67 61s67 -25 67 -61c0 -40 -31 -61 -67 -61z" />
    <glyph glyph-name="uni0679" unicode="&#x679;" horiz-adv-x="797" arabic-form="isolated" 
d="M372 0c-119 0 -193 24 -254 82c-49 46 -67 126 -67 207v189h140v-172c0 -59 11 -102 42 -128c34 -29 90 -38 149 -38h280v423h140v-563h-430zM366 747v-56h51c68 0 113 -36 113 -108v-39h-273v55h50v148h59zM418 646h-52v-47h94c0 24 -16 47 -42 47z" />
    <glyph glyph-name="uni0679.init" unicode="&#x679;" horiz-adv-x="424" arabic-form="initial" 
d="M0 0v140h209v423h140v-563h-349zM239 848v-56h51c68 0 113 -36 113 -108v-39h-273v55h50v148h59zM291 747h-52v-47h94c0 24 -16 47 -42 47z" />
    <glyph glyph-name="uni0679.medi" unicode="&#x679;" horiz-adv-x="485" arabic-form="medial" 
d="M0 0v140h209v423h140v-423h183v-140h-532zM239 848v-56h51c68 0 113 -36 113 -108v-39h-273v55h50v148h59zM291 747h-52v-47h94c0 24 -16 47 -42 47z" />
    <glyph glyph-name="uni0679.fina" unicode="&#x679;" horiz-adv-x="836" arabic-form="final" 
d="M372 0c-119 0 -193 24 -254 82c-49 46 -67 126 -67 207v189h140v-172c0 -59 11 -102 42 -128c34 -29 90 -38 149 -38h280v423h140v-423h107v-140h-537zM397 747v-56h51c68 0 113 -36 113 -108v-39h-273v55h50v148h59zM449 646h-52v-47h94c0 24 -16 47 -42 47z" />
    <glyph glyph-name="uni0629" unicode="&#x629;" horiz-adv-x="613" arabic-form="isolated" 
d="M557 0h-160c-199 0 -342 91 -342 281c0 162 127 282 342 282h20v50h140v-613zM356 140h61v283h-54c-82 0 -168 -52 -168 -142c0 -92 78 -141 161 -141zM473 687c-42 0 -78 25 -78 72c0 42 34 71 78 71c45 0 78 -29 78 -71c0 -47 -36 -72 -78 -72zM256 687
c-42 0 -78 25 -78 72c0 42 34 71 78 71s78 -29 78 -71c0 -47 -36 -72 -78 -72z" />
    <glyph glyph-name="uni0629.fina" unicode="&#x629;" horiz-adv-x="630" arabic-form="final" 
d="M557 140h92v-140h-252c-199 0 -342 91 -342 281c0 162 127 282 342 282h20v50h140v-473zM356 140h61v283h-54c-82 0 -168 -52 -168 -142c0 -92 78 -141 161 -141zM473 687c-42 0 -78 25 -78 72c0 42 34 71 78 71c45 0 78 -29 78 -71c0 -47 -36 -72 -78 -72zM256 687
c-42 0 -78 25 -78 72c0 42 34 71 78 71s78 -29 78 -71c0 -47 -36 -72 -78 -72z" />
    <glyph glyph-name="uni0686" unicode="&#x686;" horiz-adv-x="553" arabic-form="isolated" 
d="M512 0h-478s-9 28 -9 57c0 37 3 53 9 83h370c10 44 17 101 17 143c0 41 -14 90 -49 121c-28 25 -68 38 -118 38c-53 0 -93 -11 -145 -44l-58 122c65 37 136 62 220 62c82 0 151 -28 199 -77c53 -53 90 -132 90 -233c0 -106 -29 -214 -48 -272zM173 -163
c-40 0 -75 24 -75 70c0 40 32 68 75 68s76 -28 76 -68c0 -46 -36 -70 -76 -70zM279 -298c-35 0 -67 21 -67 61c0 36 28 61 67 61s67 -25 67 -61c0 -40 -31 -61 -67 -61zM385 -163c-40 0 -75 24 -75 70c0 40 32 68 75 68c44 0 76 -28 76 -68c0 -46 -35 -70 -76 -70z" />
    <glyph glyph-name="uni0686.init" unicode="&#x686;" horiz-adv-x="582" arabic-form="initial" 
d="M0 0v140h415c10 44 17 101 17 143c0 41 -14 90 -49 121c-28 25 -68 38 -118 38c-53 0 -93 -11 -145 -44l-58 122c65 37 136 62 220 62c82 0 151 -28 199 -77c53 -53 90 -132 90 -233c0 -106 -29 -214 -48 -272h-523zM162 -163c-40 0 -75 24 -75 70c0 40 32 68 75 68
s76 -28 76 -68c0 -46 -36 -70 -76 -70zM268 -298c-35 0 -67 21 -67 61c0 36 28 61 67 61s67 -25 67 -61c0 -40 -31 -61 -67 -61zM374 -163c-40 0 -75 24 -75 70c0 40 32 68 75 68c44 0 76 -28 76 -68c0 -46 -35 -70 -76 -70z" />
    <glyph glyph-name="uni0686.medi" unicode="&#x686;" horiz-adv-x="617" arabic-form="medial" 
d="M0 0v140h415c10 44 17 101 17 143c0 41 -14 90 -49 121c-28 25 -68 38 -118 38c-53 0 -93 -11 -145 -44l-58 122c65 37 136 62 220 62c82 0 151 -28 199 -77c53 -53 90 -132 90 -233c0 -45 -5 -90 -13 -132h69v-140h-627zM374 -163c-40 0 -75 24 -75 70c0 40 32 68 75 68
c44 0 76 -28 76 -68c0 -46 -35 -70 -76 -70zM162 -163c-40 0 -75 24 -75 70c0 40 32 68 75 68s76 -28 76 -68c0 -46 -36 -70 -76 -70zM268 -298c-35 0 -67 21 -67 61c0 36 28 61 67 61s67 -25 67 -61c0 -40 -31 -61 -67 -61z" />
    <glyph glyph-name="uni0686.fina" unicode="&#x686;" horiz-adv-x="588" arabic-form="final" 
d="M602 0h-568s-9 28 -9 57c0 37 3 53 9 83h370c10 44 17 101 17 143c0 41 -14 90 -49 121c-28 25 -68 38 -118 38c-53 0 -93 -11 -145 -44l-58 122c65 37 136 62 220 62c82 0 151 -28 199 -77c53 -53 90 -132 90 -233c0 -45 -5 -90 -13 -132h55v-140zM404 -163
c-40 0 -75 24 -75 70c0 40 32 68 75 68c44 0 76 -28 76 -68c0 -46 -35 -70 -76 -70zM192 -163c-40 0 -75 24 -75 70c0 40 32 68 75 68s76 -28 76 -68c0 -46 -36 -70 -76 -70zM298 -298c-35 0 -67 21 -67 61c0 36 28 61 67 61s67 -25 67 -61c0 -40 -31 -61 -67 -61z" />
    <glyph glyph-name="uni062C" unicode="&#x62c;" horiz-adv-x="598" arabic-form="isolated" 
d="M105 -220c-49 70 -80 151 -80 259c0 37 3 71 9 101h370c10 44 17 101 17 143c0 41 -14 90 -49 121c-28 25 -68 38 -118 38c-53 0 -93 -11 -145 -44l-58 122c65 37 136 62 220 62c82 0 151 -28 199 -77c53 -53 90 -132 90 -233c0 -106 -29 -214 -48 -272h-345v-15
c0 -49 14 -97 47 -154zM365 -213c-44 0 -82 26 -82 75c0 44 36 74 82 74c47 0 82 -30 82 -74c0 -49 -38 -75 -82 -75z" />
    <glyph glyph-name="uni062C.init" unicode="&#x62c;" horiz-adv-x="617" arabic-form="initial" 
d="M0 0v140h415c10 44 17 101 17 143c0 41 -14 90 -49 121c-28 25 -68 38 -118 38c-53 0 -93 -11 -145 -44l-58 122c65 37 136 62 220 62c82 0 151 -28 199 -77c53 -53 90 -132 90 -233c0 -106 -29 -214 -48 -272h-523zM274 -213c-44 0 -82 26 -82 75c0 44 36 74 82 74
c47 0 82 -30 82 -74c0 -49 -38 -75 -82 -75z" />
    <glyph glyph-name="uni062C.medi" unicode="&#x62c;" horiz-adv-x="647" arabic-form="medial" 
d="M0 0v140h415c10 44 17 101 17 143c0 41 -14 90 -49 121c-28 25 -68 38 -118 38c-53 0 -93 -11 -145 -44l-58 122c65 37 136 62 220 62c82 0 151 -28 199 -77c53 -53 90 -132 90 -233c0 -45 -5 -90 -13 -132h108v-140h-666zM274 -213c-44 0 -82 26 -82 75
c0 44 36 74 82 74c47 0 82 -30 82 -74c0 -49 -38 -75 -82 -75z" />
    <glyph glyph-name="uni062C.fina" unicode="&#x62c;" horiz-adv-x="627" arabic-form="final" 
d="M105 -220c-49 70 -80 151 -80 259c0 37 3 71 9 101h370c10 44 17 101 17 143c0 41 -14 90 -49 121c-28 25 -68 38 -118 38c-53 0 -93 -11 -145 -44l-58 122c65 37 136 62 220 62c82 0 151 -28 199 -77c53 -53 90 -132 90 -233c0 -45 -5 -90 -13 -132h99v-140h-479v-15
c0 -49 14 -97 47 -154zM376 -213c-44 0 -82 26 -82 75c0 44 36 74 82 74c47 0 82 -30 82 -74c0 -49 -38 -75 -82 -75z" />
    <glyph glyph-name="uni062D" unicode="&#x62d;" horiz-adv-x="598" arabic-form="isolated" 
d="M105 -220c-49 70 -80 151 -80 259c0 37 3 71 9 101h370c10 44 17 101 17 143c0 41 -14 90 -49 121c-28 25 -68 38 -118 38c-53 0 -93 -11 -145 -44l-58 122c65 37 136 62 220 62c82 0 151 -28 199 -77c53 -53 90 -132 90 -233c0 -106 -29 -214 -48 -272h-345v-15
c0 -49 14 -97 47 -154z" />
    <glyph glyph-name="uni062D.init" unicode="&#x62d;" horiz-adv-x="617" arabic-form="initial" 
d="M0 0v140h415c10 44 17 101 17 143c0 41 -14 90 -49 121c-28 25 -68 38 -118 38c-53 0 -93 -11 -145 -44l-58 122c65 37 136 62 220 62c82 0 151 -28 199 -77c53 -53 90 -132 90 -233c0 -106 -29 -214 -48 -272h-523z" />
    <glyph glyph-name="uni062D.medi" unicode="&#x62d;" horiz-adv-x="647" arabic-form="medial" 
d="M0 0v140h415c10 44 17 101 17 143c0 41 -14 90 -49 121c-28 25 -68 38 -118 38c-53 0 -93 -11 -145 -44l-58 122c65 37 136 62 220 62c82 0 151 -28 199 -77c53 -53 90 -132 90 -233c0 -45 -5 -90 -13 -132h108v-140h-666z" />
    <glyph glyph-name="uni062D.fina" unicode="&#x62d;" horiz-adv-x="627" arabic-form="final" 
d="M167 0v-15c0 -49 14 -97 47 -154l-109 -51c-49 70 -80 151 -80 259c0 37 3 71 9 101h370c10 44 17 101 17 143c0 41 -14 90 -49 121c-28 25 -68 38 -118 38c-53 0 -93 -11 -145 -44l-58 122c65 37 136 62 220 62c82 0 151 -28 199 -77c53 -53 90 -132 90 -233
c0 -45 -5 -90 -13 -132h99v-140h-479z" />
    <glyph glyph-name="uni062E" unicode="&#x62e;" horiz-adv-x="598" arabic-form="isolated" 
d="M245 660c-44 0 -82 26 -82 75c0 44 36 74 82 74c47 0 82 -30 82 -74c0 -49 -38 -75 -82 -75zM105 -220c-49 70 -80 151 -80 259c0 37 3 71 9 101h370c10 44 17 101 17 143c0 41 -14 90 -49 121c-28 25 -68 38 -118 38c-53 0 -93 -11 -145 -44l-58 122
c65 37 136 62 220 62c82 0 151 -28 199 -77c53 -53 90 -132 90 -233c0 -106 -29 -214 -48 -272h-345v-15c0 -49 14 -97 47 -154z" />
    <glyph glyph-name="uni062E.init" unicode="&#x62e;" horiz-adv-x="617" arabic-form="initial" 
d="M0 0v140h415c10 44 17 101 17 143c0 41 -14 90 -49 121c-28 25 -68 38 -118 38c-53 0 -93 -11 -145 -44l-58 122c65 37 136 62 220 62c82 0 151 -28 199 -77c53 -53 90 -132 90 -233c0 -106 -29 -214 -48 -272h-523zM264 666c-44 0 -82 26 -82 75c0 44 36 74 82 74
c47 0 82 -30 82 -74c0 -49 -38 -75 -82 -75z" />
    <glyph glyph-name="uni062E.medi" unicode="&#x62e;" horiz-adv-x="607" arabic-form="medial" 
d="M-40 0v140h415c10 44 17 101 17 143c0 41 -14 90 -49 121c-28 25 -68 38 -118 38c-53 0 -93 -11 -145 -44l-58 122c65 37 136 62 220 62c82 0 151 -28 199 -77c53 -53 90 -132 90 -233c0 -45 -5 -90 -13 -132h108v-140h-666zM224 666c-44 0 -82 26 -82 75
c0 44 36 74 82 74c47 0 82 -30 82 -74c0 -49 -38 -75 -82 -75z" />
    <glyph glyph-name="uni062E.fina" unicode="&#x62e;" horiz-adv-x="602" arabic-form="final" 
d="M142 0v-15c0 -49 14 -97 47 -154l-109 -51c-49 70 -80 151 -80 259c0 37 3 71 9 101h370c10 44 17 101 17 143c0 41 -14 90 -49 121c-28 25 -68 38 -118 38c-53 0 -93 -11 -145 -44l-58 122c65 37 136 62 220 62c82 0 151 -28 199 -77c53 -53 90 -132 90 -233
c0 -45 -5 -90 -13 -132h99v-140h-479zM219 660c-44 0 -82 26 -82 75c0 44 36 74 82 74c47 0 82 -30 82 -74c0 -49 -38 -75 -82 -75z" />
    <glyph glyph-name="uni062F" unicode="&#x62f;" horiz-adv-x="575" arabic-form="isolated" 
d="M35 0v140h349v153c0 40 -9 69 -27 92c-17 22 -49 38 -85 38h-60v140h46c90 0 158 -22 208 -75c42 -45 58 -119 58 -201v-287h-489z" />
    <glyph glyph-name="uni062F.fina" unicode="&#x62f;" horiz-adv-x="613" arabic-form="final" 
d="M35 0v140h349v153c0 40 -9 69 -27 92c-17 22 -49 38 -85 38h-60v140h46c90 0 158 -22 208 -75c42 -45 58 -119 58 -201v-147h108v-140h-597z" />
    <glyph glyph-name="uni0630" unicode="&#x630;" horiz-adv-x="575" arabic-form="isolated" 
d="M286 637c-44 0 -82 26 -82 75c0 44 36 74 82 74c47 0 82 -30 82 -74c0 -49 -38 -75 -82 -75zM35 0v140h349v153c0 40 -9 69 -27 92c-17 22 -49 38 -85 38h-60v140h46c90 0 158 -22 208 -75c42 -45 58 -119 58 -201v-287h-489z" />
    <glyph glyph-name="uni0630.fina" unicode="&#x630;" horiz-adv-x="613" arabic-form="final" 
d="M35 0v140h349v153c0 40 -9 69 -27 92c-17 22 -49 38 -85 38h-60v140h46c90 0 158 -22 208 -75c42 -45 58 -119 58 -201v-147h108v-140h-597zM286 637c-44 0 -82 26 -82 75c0 44 36 74 82 74c47 0 82 -30 82 -74c0 -49 -38 -75 -82 -75z" />
    <glyph glyph-name="uni0688" unicode="&#x688;" horiz-adv-x="533" arabic-form="isolated" 
d="M35 0v140h349v153c0 40 -9 69 -27 92c-17 22 -49 38 -85 38h-60v140h46c90 0 158 -22 208 -75c42 -45 58 -119 58 -201v-287h-489zM239 848v-56h51c68 0 113 -36 113 -108v-39h-273v55h50v148h59zM291 747h-52v-47h94c0 24 -16 47 -42 47z" />
    <glyph glyph-name="uni0688.fina" unicode="&#x688;" horiz-adv-x="582" arabic-form="final" 
d="M35 0v140h349v153c0 40 -9 69 -27 92c-17 22 -49 38 -85 38h-60v140h46c90 0 158 -22 208 -75c42 -45 58 -119 58 -201v-147h110v-140h-599zM239 848v-56h51c68 0 113 -36 113 -108v-39h-273v55h50v148h59zM291 747h-52v-47h94c0 24 -16 47 -42 47z" />
    <glyph glyph-name="uni0631" unicode="&#x631;" horiz-adv-x="371" arabic-form="isolated" 
d="M111 -220c-26 0 -54 4 -71 9l-10 140c26 -7 45 -9 66 -9c56 0 75 29 75 98v545h140v-525c0 -181 -57 -258 -200 -258z" />
    <glyph glyph-name="uni0631.fina" unicode="&#x631;" horiz-adv-x="399" arabic-form="final" 
d="M111 -220c-26 0 -54 4 -71 9l-10 140c26 -7 45 -9 66 -9c56 0 75 29 75 98v545h140v-423h108v-140h-109c-8 -154 -67 -220 -199 -220z" />
    <glyph glyph-name="uni0632" unicode="&#x632;" horiz-adv-x="379" arabic-form="isolated" 
d="M111 -220c-26 0 -54 4 -71 9l-10 140c26 -7 45 -9 66 -9c56 0 75 29 75 98v545h140v-525c0 -181 -57 -258 -200 -258zM237 648c-44 0 -82 26 -82 75c0 44 36 74 82 74c47 0 82 -30 82 -74c0 -49 -38 -75 -82 -75z" />
    <glyph glyph-name="uni0632.fina" unicode="&#x632;" horiz-adv-x="399" arabic-form="final" 
d="M111 -220c-26 0 -54 4 -71 9l-10 140c26 -7 45 -9 66 -9c56 0 75 29 75 98v545h140v-423h108v-140h-109c-8 -154 -67 -220 -199 -220zM238 648c-44 0 -82 26 -82 75c0 44 36 74 82 74c47 0 82 -30 82 -74c0 -49 -38 -75 -82 -75z" />
    <glyph glyph-name="uni0691" unicode="&#x691;" horiz-adv-x="369" arabic-form="isolated" 
d="M111 -220c-26 0 -54 4 -71 9l-10 140c26 -7 45 -9 66 -9c56 0 75 29 75 98v545h140v-525c0 -181 -57 -258 -200 -258zM215 848v-56h51c68 0 113 -36 113 -108v-39h-273v55h50v148h59zM267 747h-52v-47h94c0 24 -16 47 -42 47z" />
    <glyph glyph-name="uni0691.fina" unicode="&#x691;" horiz-adv-x="401" arabic-form="final" 
d="M111 -220c-26 0 -54 4 -71 9l-10 140c26 -7 45 -9 66 -9c56 0 75 29 75 98v545h140v-423h110v-140h-111c-8 -154 -67 -220 -199 -220zM215 848v-56h51c68 0 113 -36 113 -108v-39h-273v55h50v148h59zM267 747h-52v-47h94c0 24 -16 47 -42 47z" />
    <glyph glyph-name="uni0698" unicode="&#x698;" horiz-adv-x="378" arabic-form="isolated" 
d="M112 -220c-26 0 -54 4 -71 9l-10 140c26 -7 45 -9 66 -9c56 0 75 29 75 98v545h140v-525c0 -181 -57 -258 -200 -258zM137 654c-40 0 -75 24 -75 70c0 41 32 69 75 69s76 -28 76 -69c0 -46 -36 -70 -76 -70zM243 813c-35 0 -67 21 -67 61c0 36 28 61 67 61s67 -25 67 -61
c0 -40 -31 -61 -67 -61zM349 654c-40 0 -75 24 -75 70c0 41 32 69 75 69c44 0 76 -28 76 -69c0 -46 -35 -70 -76 -70z" />
    <glyph glyph-name="uni0698.fina" unicode="&#x698;" horiz-adv-x="402" arabic-form="final" 
d="M112 -220c-26 0 -54 4 -71 9l-10 140c26 -7 45 -9 66 -9c56 0 75 29 75 98v545h140v-423h110v-140h-111c-8 -154 -67 -220 -199 -220zM349 654c-40 0 -75 24 -75 70c0 41 32 69 75 69c44 0 76 -28 76 -69c0 -46 -35 -70 -76 -70zM137 654c-40 0 -75 24 -75 70
c0 41 32 69 75 69s76 -28 76 -69c0 -46 -36 -70 -76 -70zM243 813c-35 0 -67 21 -67 61c0 36 28 61 67 61s67 -25 67 -61c0 -40 -31 -61 -67 -61z" />
    <glyph glyph-name="uni0633" unicode="&#x633;" horiz-adv-x="1422" arabic-form="isolated" 
d="M1112 -10c-76 0 -153 22 -199 96c-51 -53 -123 -86 -199 -86h-103v-125h-230c-119 0 -193 24 -254 82c-49 46 -67 126 -67 207v327h140v-310c0 -59 11 -102 42 -128c34 -29 90 -38 149 -38h80v548h140v-423h103c60 0 132 27 132 125v248h140v-248c2 -91 51 -135 126 -135
c79 0 120 49 120 126v377h139v-359c0 -192 -85 -284 -259 -284z" />
    <glyph glyph-name="uni0633.init" unicode="&#x633;" horiz-adv-x="1168" arabic-form="initial" 
d="M0 0v140h218v373h140v-373h102c60 0 132 27 132 125v248h140v-248c2 -91 51 -135 126 -135c79 0 120 49 120 126v377h139v-359c0 -192 -85 -284 -259 -284c-76 0 -153 22 -199 96c-51 -53 -123 -86 -199 -86h-460z" />
    <glyph glyph-name="uni0633.medi" unicode="&#x633;" horiz-adv-x="1230" arabic-form="medial" 
d="M732 513v-242c0 -95 50 -141 126 -141c79 0 120 49 120 126v377h139v-359c0 -32 -3 -61 -7 -87c30 -32 75 -47 140 -47v-140c-110 0 -156 42 -179 83c-42 -62 -113 -93 -213 -93c-76 0 -153 22 -199 96c-51 -53 -123 -86 -199 -86h-460v140h218v373h140v-373h102
c60 0 132 27 132 125v248h140z" />
    <glyph glyph-name="uni0633.fina" unicode="&#x633;" horiz-adv-x="1475" arabic-form="final" 
d="M986 513v-242c0 -95 50 -141 126 -141c79 0 120 49 120 126v377h139v-359c0 -35 -3 -67 -9 -95c32 -26 89 -39 139 -39v-140c-108 0 -155 41 -178 81c-42 -61 -112 -91 -211 -91c-76 0 -153 22 -199 96c-51 -53 -123 -86 -199 -86h-103v-125h-230c-119 0 -193 24 -254 82
c-49 46 -67 126 -67 207v327h140v-310c0 -59 11 -102 42 -128c34 -29 90 -38 149 -38h80v548h140v-423h103c60 0 132 27 132 125v248h140z" />
    <glyph glyph-name="uni0634" unicode="&#x634;" horiz-adv-x="1422" arabic-form="isolated" 
d="M1112 -10c-76 0 -153 22 -199 96c-51 -53 -123 -86 -199 -86h-103v-125h-230c-119 0 -193 24 -254 82c-49 46 -67 126 -67 207v327h140v-310c0 -59 11 -102 42 -128c34 -29 90 -38 149 -38h80v548h140v-423h103c60 0 132 27 132 125v248h140v-242c0 -95 50 -141 126 -141
c79 0 120 49 120 126v377h139v-359c0 -192 -85 -284 -259 -284zM1023 654c-40 0 -75 24 -75 70c0 41 32 69 75 69c44 0 76 -28 76 -69c0 -46 -35 -70 -76 -70zM811 654c-40 0 -75 24 -75 70c0 41 32 69 75 69s76 -28 76 -69c0 -46 -36 -70 -76 -70zM917 813
c-35 0 -67 21 -67 61c0 36 28 61 67 61s67 -25 67 -61c0 -40 -31 -61 -67 -61z" />
    <glyph glyph-name="uni0634.init" unicode="&#x634;" horiz-adv-x="1168" arabic-form="initial" 
d="M0 0v140h218v373h140v-373h102c60 0 132 27 132 125v248h140v-242c0 -95 50 -141 126 -141c79 0 120 49 120 126v377h139v-359c0 -192 -85 -284 -259 -284c-76 0 -153 22 -199 96c-51 -53 -123 -86 -199 -86h-460zM768 654c-40 0 -75 24 -75 70c0 41 32 69 75 69
c44 0 76 -28 76 -69c0 -46 -35 -70 -76 -70zM556 654c-40 0 -75 24 -75 70c0 41 32 69 75 69s76 -28 76 -69c0 -46 -36 -70 -76 -70zM662 813c-35 0 -67 21 -67 61c0 36 28 61 67 61s67 -25 67 -61c0 -40 -31 -61 -67 -61z" />
    <glyph glyph-name="uni0634.medi" unicode="&#x634;" horiz-adv-x="1229" arabic-form="medial" 
d="M732 513v-248v-1c2 -90 52 -134 126 -134c79 0 120 49 120 126v377h139v-359c0 -34 -3 -65 -8 -93c31 -27 90 -41 141 -41v-140c-110 0 -157 42 -180 83c-42 -63 -112 -93 -212 -93c-76 0 -153 22 -199 96c-51 -53 -123 -86 -199 -86h-460v140h218v373h140v-373h102
c60 0 132 27 132 125v248h140zM766 654c-40 0 -75 24 -75 70c0 41 32 69 75 69c44 0 76 -28 76 -69c0 -46 -35 -70 -76 -70zM554 654c-40 0 -75 24 -75 70c0 41 32 69 75 69s76 -28 76 -69c0 -46 -36 -70 -76 -70zM660 813c-35 0 -67 21 -67 61c0 36 28 61 67 61
s67 -25 67 -61c0 -40 -31 -61 -67 -61z" />
    <glyph glyph-name="uni0634.fina" unicode="&#x634;" horiz-adv-x="1475" arabic-form="final" 
d="M986 513v-242v-6v-1c2 -90 52 -134 126 -134c79 0 120 49 120 126v377h139v-359c0 -35 -3 -67 -9 -95c32 -26 89 -39 139 -39v-140c-108 0 -155 41 -178 81c-42 -61 -112 -91 -211 -91c-76 0 -153 22 -199 96c-51 -53 -123 -86 -199 -86h-103v-125h-230
c-119 0 -193 24 -254 82c-49 46 -67 126 -67 207v327h140v-310c0 -59 11 -102 42 -128c34 -29 90 -38 149 -38h80v548h140v-423h103c60 0 132 27 132 125v248h140zM1023 654c-40 0 -75 24 -75 70c0 41 32 69 75 69c44 0 76 -28 76 -69c0 -46 -35 -70 -76 -70zM811 654
c-40 0 -75 24 -75 70c0 41 32 69 75 69s76 -28 76 -69c0 -46 -36 -70 -76 -70zM917 813c-35 0 -67 21 -67 61c0 36 28 61 67 61s67 -25 67 -61c0 -40 -31 -61 -67 -61z" />
    <glyph glyph-name="uni0635" unicode="&#x635;" horiz-adv-x="1238" arabic-form="isolated" 
d="M382 -125c-119 0 -193 24 -254 82c-49 46 -67 126 -67 207v327h140v-310c0 -59 11 -102 42 -128c34 -29 90 -38 149 -38h80v567h140v-69h309c90 0 158 -22 208 -75c42 -45 58 -119 58 -201v-237h-575v-125h-230zM935 374h-323v-234h435v103c0 40 -9 69 -27 92
c-17 22 -49 39 -85 39z" />
    <glyph glyph-name="uni0635.init" unicode="&#x635;" horiz-adv-x="860" arabic-form="initial" 
d="M0 0v140h98v423h140v-50h305c90 0 158 -22 208 -75c42 -45 58 -119 58 -201v-237h-809zM557 374h-319v-234h431v103c0 40 -9 69 -27 92c-17 22 -49 39 -85 39z" />
    <glyph glyph-name="uni0635.medi" unicode="&#x635;" horiz-adv-x="898" arabic-form="medial" 
d="M0 0v140h98v423h140v-50h305c90 0 158 -22 208 -75c42 -45 58 -119 58 -201v-97h108v-140h-917zM557 374h-319v-234h431v103c0 40 -9 69 -27 92c-17 22 -49 39 -85 39z" />
    <glyph glyph-name="uni0635.fina" unicode="&#x635;" horiz-adv-x="1275" arabic-form="final" 
d="M382 -125c-119 0 -193 24 -254 82c-49 46 -67 126 -67 207v327h140v-310c0 -59 11 -102 42 -128c34 -29 90 -38 149 -38h80v567h140v-69h309c90 0 158 -22 208 -75c42 -45 58 -119 58 -201v-97h108v-140h-683v-125h-230zM935 374h-323v-234h435v103c0 40 -9 69 -27 92
c-17 22 -49 39 -85 39z" />
    <glyph glyph-name="uni0636" unicode="&#x636;" horiz-adv-x="1238" arabic-form="isolated" 
d="M382 -125c-119 0 -193 24 -254 82c-49 46 -67 126 -67 207v327h140v-310c0 -59 11 -102 42 -128c34 -29 90 -38 149 -38h80v567h140v-69h309c90 0 158 -22 208 -75c42 -45 58 -119 58 -201v-237h-575v-125h-230zM935 374h-323v-234h435v103c0 40 -9 69 -27 92
c-17 22 -49 39 -85 39zM822 603c-44 0 -82 26 -82 75c0 44 36 74 82 74c47 0 82 -30 82 -74c0 -49 -38 -75 -82 -75z" />
    <glyph glyph-name="uni0636.init" unicode="&#x636;" horiz-adv-x="860" arabic-form="initial" 
d="M0 0v140h98v423h140v-50h305c90 0 158 -22 208 -75c42 -45 58 -119 58 -201v-237h-809zM557 374h-319v-234h431v103c0 40 -9 69 -27 92c-17 22 -49 39 -85 39zM450 603c-44 0 -82 26 -82 75c0 44 36 74 82 74c47 0 82 -30 82 -74c0 -49 -38 -75 -82 -75z" />
    <glyph glyph-name="uni0636.medi" unicode="&#x636;" horiz-adv-x="898" arabic-form="medial" 
d="M0 0v140h98v423h140v-50h305c90 0 158 -22 208 -75c42 -45 58 -119 58 -201v-97h108v-140h-917zM557 374h-319v-234h431v103c0 40 -9 69 -27 92c-17 22 -49 39 -85 39zM450 603c-44 0 -82 26 -82 75c0 44 36 74 82 74c47 0 82 -30 82 -74c0 -49 -38 -75 -82 -75z" />
    <glyph glyph-name="uni0636.fina" unicode="&#x636;" horiz-adv-x="1275" arabic-form="final" 
d="M382 -125c-119 0 -193 24 -254 82c-49 46 -67 126 -67 207v327h140v-310c0 -59 11 -102 42 -128c34 -29 90 -38 149 -38h80v567h140v-69h309c90 0 158 -22 208 -75c42 -45 58 -119 58 -201v-97h108v-140h-683v-125h-230zM935 374h-323v-234h435v103c0 40 -9 69 -27 92
c-17 22 -49 39 -85 39zM819 603c-44 0 -82 26 -82 75c0 44 36 74 82 74c47 0 82 -30 82 -74c0 -49 -38 -75 -82 -75z" />
    <glyph glyph-name="uni0637" unicode="&#x637;" horiz-adv-x="879" arabic-form="isolated" 
d="M18 0v140h98v671h140v-298h305c90 0 158 -22 208 -75c42 -45 58 -119 58 -201v-237h-809zM575 374h-319v-234h431v103c0 40 -9 69 -27 92c-17 22 -49 39 -85 39z" />
    <glyph glyph-name="uni0637.init" unicode="&#x637;" horiz-adv-x="860" arabic-form="initial" 
d="M0 0v140h98v671h140v-298h305c90 0 158 -22 208 -75c42 -45 58 -119 58 -201v-237h-809zM557 374h-319v-234h431v103c0 40 -9 69 -27 92c-17 22 -49 39 -85 39z" />
    <glyph glyph-name="uni0637.medi" unicode="&#x637;" horiz-adv-x="898" arabic-form="medial" 
d="M0 0v140h98v671h140v-298h305c90 0 158 -22 208 -75c42 -45 58 -119 58 -201v-97h108v-140h-917zM557 374h-319v-234h431v103c0 40 -9 69 -27 92c-17 22 -49 39 -85 39z" />
    <glyph glyph-name="uni0637.fina" unicode="&#x637;" horiz-adv-x="916" arabic-form="final" 
d="M18 0v140h98v671h140v-298h305c90 0 158 -22 208 -75c42 -45 58 -119 58 -201v-97h109v-140h-918zM575 374h-319v-234h431v103c0 40 -9 69 -27 92c-17 22 -49 39 -85 39z" />
    <glyph glyph-name="uni0638" unicode="&#x638;" horiz-adv-x="879" arabic-form="isolated" 
d="M18 0v140h98v671h140v-298h305c90 0 158 -22 208 -75c42 -45 58 -119 58 -201v-237h-809zM575 374h-319v-234h431v103c0 40 -9 69 -27 92c-17 22 -49 39 -85 39zM472 603c-44 0 -82 26 -82 75c0 44 36 74 82 74c47 0 82 -30 82 -74c0 -49 -38 -75 -82 -75z" />
    <glyph glyph-name="uni0638.init" unicode="&#x638;" horiz-adv-x="860" arabic-form="initial" 
d="M0 0v140h98v671h140v-298h305c90 0 158 -22 208 -75c42 -45 58 -119 58 -201v-237h-809zM557 374h-319v-234h431v103c0 40 -9 69 -27 92c-17 22 -49 39 -85 39zM453 603c-44 0 -82 26 -82 75c0 44 36 74 82 74c47 0 82 -30 82 -74c0 -49 -38 -75 -82 -75z" />
    <glyph glyph-name="uni0638.medi" unicode="&#x638;" horiz-adv-x="898" arabic-form="medial" 
d="M0 0v140h98v671h140v-298h305c90 0 158 -22 208 -75c42 -45 58 -119 58 -201v-97h108v-140h-917zM557 374h-319v-234h431v103c0 40 -9 69 -27 92c-17 22 -49 39 -85 39zM453 603c-44 0 -82 26 -82 75c0 44 36 74 82 74c47 0 82 -30 82 -74c0 -49 -38 -75 -82 -75z" />
    <glyph glyph-name="uni0638.fina" unicode="&#x638;" horiz-adv-x="916" arabic-form="final" 
d="M18 0v140h98v671h140v-298h305c90 0 158 -22 208 -75c42 -45 58 -119 58 -201v-97h109v-140h-918zM575 374h-319v-234h431v103c0 40 -9 69 -27 92c-17 22 -49 39 -85 39zM472 603c-44 0 -82 26 -82 75c0 44 36 74 82 74c47 0 82 -30 82 -74c0 -49 -38 -75 -82 -75z" />
    <glyph glyph-name="uni0639" unicode="&#x639;" horiz-adv-x="610" arabic-form="isolated" 
d="M111 -220c-49 70 -80 151 -80 259c0 37 3 71 9 101h75c-22 46 -42 104 -42 167c0 95 42 168 100 216c46 38 111 59 182 59c74 0 140 -21 208 -55l-47 -127c-42 24 -97 43 -144 43c-46 0 -82 -11 -109 -34c-36 -30 -49 -69 -49 -113c0 -64 20 -115 53 -156h317v-140h-411
v-15c0 -49 14 -97 47 -154z" />
    <glyph glyph-name="uni0639.init" unicode="&#x639;" horiz-adv-x="616" arabic-form="initial" 
d="M0 0v140h109c-22 46 -42 104 -42 167c0 95 42 168 100 216c46 38 111 59 182 59c74 0 140 -21 208 -55l-47 -127c-42 24 -97 43 -144 43c-46 0 -82 -11 -109 -34c-36 -30 -49 -69 -49 -113c0 -64 20 -115 53 -156h317v-140h-578z" />
    <glyph glyph-name="uni0639.medi" unicode="&#x639;" horiz-adv-x="704" arabic-form="medial" 
d="M0 0v140h169l-124 318c96 83 192 142 307 142c116 0 216 -59 308 -143l-120 -317h184v-140h-724zM352 452c-55 0 -99 -17 -150 -54l91 -258h120l91 259c-56 38 -95 53 -152 53z" />
    <glyph glyph-name="uni0639.fina" unicode="&#x639;" horiz-adv-x="731" arabic-form="final" 
d="M120 -220c-49 70 -80 151 -80 259c0 37 3 71 9 101h148l-124 318c96 83 192 142 307 142c116 0 216 -59 308 -143l-120 -317h183v-140h-569v-15c0 -49 14 -97 47 -154zM380 452c-55 0 -99 -17 -150 -54l91 -258h120l91 259c-56 38 -95 53 -152 53z" />
    <glyph glyph-name="uni063A" unicode="&#x63a;" horiz-adv-x="610" arabic-form="isolated" 
d="M111 -220c-49 70 -80 151 -80 259c0 37 3 71 9 101h75c-22 46 -42 104 -42 167c0 95 42 168 100 216c46 38 111 59 182 59c74 0 140 -21 208 -55l-47 -127c-42 24 -97 43 -144 43c-46 0 -82 -11 -109 -34c-36 -30 -49 -69 -49 -113c0 -64 20 -115 53 -156h317v-140h-411
v-15c0 -49 14 -97 47 -154zM342 666c-44 0 -82 26 -82 75c0 44 36 74 82 74c47 0 82 -30 82 -74c0 -49 -38 -75 -82 -75z" />
    <glyph glyph-name="uni063A.init" unicode="&#x63a;" horiz-adv-x="616" arabic-form="initial" 
d="M0 0v140h109c-22 46 -42 104 -42 167c0 95 42 168 100 216c46 38 111 59 182 59c74 0 140 -21 208 -55l-47 -127c-42 24 -97 43 -144 43c-46 0 -82 -11 -109 -34c-36 -30 -49 -69 -49 -113c0 -64 20 -115 53 -156h317v-140h-578zM330 666c-44 0 -82 26 -82 75
c0 44 36 74 82 74c47 0 82 -30 82 -74c0 -49 -38 -75 -82 -75z" />
    <glyph glyph-name="uni063A.medi" unicode="&#x63a;" horiz-adv-x="704" arabic-form="medial" 
d="M0 0v140h169l-124 318c96 83 192 142 307 142c116 0 216 -59 308 -143l-120 -317h184v-140h-724zM352 452c-55 0 -99 -17 -150 -54l91 -258h120l91 259c-56 38 -95 53 -152 53zM350 666c-44 0 -82 26 -82 75c0 44 36 74 82 74c47 0 82 -30 82 -74c0 -49 -38 -75 -82 -75z
" />
    <glyph glyph-name="uni063A.fina" unicode="&#x63a;" horiz-adv-x="731" arabic-form="final" 
d="M120 -220c-49 70 -80 151 -80 259c0 37 3 71 9 101h148l-124 318c96 83 192 142 307 142c116 0 216 -59 308 -143l-120 -317h183v-140h-569v-15c0 -49 14 -97 47 -154zM380 452c-55 0 -99 -17 -150 -54l91 -258h120l91 259c-56 38 -95 53 -152 53zM374 666
c-44 0 -82 26 -82 75c0 44 36 74 82 74c47 0 82 -30 82 -74c0 -49 -38 -75 -82 -75z" />
    <glyph glyph-name="uni0641" unicode="&#x641;" horiz-adv-x="1058" arabic-form="isolated" 
d="M998 0h-626c-119 0 -193 24 -254 82c-49 46 -67 126 -67 207v189h140v-172c0 -59 11 -102 42 -128c34 -29 90 -38 149 -38h163c-29 38 -48 85 -48 142c0 176 136 281 336 281h165v-563zM637 282c0 -61 30 -110 76 -142h145v283h-59c-81 0 -162 -49 -162 -141zM805 648
c-44 0 -82 26 -82 75c0 44 36 74 82 74c47 0 82 -30 82 -74c0 -49 -38 -75 -82 -75z" />
    <glyph glyph-name="uni0641.init" unicode="&#x641;" horiz-adv-x="632" arabic-form="initial" 
d="M0 0v140h134c-29 38 -48 85 -48 142c0 176 136 281 336 281h165v-563h-587zM226 282c0 -61 30 -110 76 -142h145v283h-59c-81 0 -162 -49 -162 -141zM380 648c-44 0 -82 26 -82 75c0 44 36 74 82 74c47 0 82 -30 82 -74c0 -49 -38 -75 -82 -75z" />
    <glyph glyph-name="uni0641.medi" unicode="&#x641;" horiz-adv-x="660" arabic-form="medial" 
d="M0 0v140h134c-29 38 -48 85 -48 142c0 176 136 281 336 281h165v-423h93v-140h-680zM226 282c0 -61 30 -110 76 -142h145v283h-59c-81 0 -162 -49 -162 -141zM379 648c-44 0 -82 26 -82 75c0 44 36 74 82 74c47 0 82 -30 82 -74c0 -49 -38 -75 -82 -75z" />
    <glyph glyph-name="uni0641.fina" unicode="&#x641;" horiz-adv-x="1086" arabic-form="final" 
d="M1105 0h-733c-119 0 -193 24 -254 82c-49 46 -67 126 -67 207v189h140v-172c0 -59 11 -102 42 -128c34 -29 90 -38 149 -38h163c-29 38 -48 85 -48 142c0 176 136 281 336 281h165v-423h107v-140zM637 282c0 -61 30 -110 76 -142h145v283h-59c-81 0 -162 -49 -162 -141z
M805 648c-44 0 -82 26 -82 75c0 44 36 74 82 74c47 0 82 -30 82 -74c0 -49 -38 -75 -82 -75z" />
    <glyph glyph-name="uni06A4" unicode="&#x6a4;" horiz-adv-x="1058" arabic-form="isolated" 
d="M998 0h-626c-119 0 -193 24 -254 82c-49 46 -67 126 -67 207v189h140v-172c0 -59 11 -102 42 -128c34 -29 90 -38 149 -38h163c-29 38 -48 85 -48 142c0 176 136 281 336 281h165v-563zM637 282c0 -61 30 -110 76 -142h145v283h-59c-81 0 -162 -49 -162 -141zM912 654
c-40 0 -75 24 -75 70c0 41 32 69 75 69c44 0 76 -28 76 -69c0 -46 -35 -70 -76 -70zM700 654c-40 0 -75 24 -75 70c0 41 32 69 75 69s76 -28 76 -69c0 -46 -36 -70 -76 -70zM806 813c-35 0 -67 21 -67 61c0 36 28 61 67 61s67 -25 67 -61c0 -40 -31 -61 -67 -61z" />
    <glyph glyph-name="uni06A4.init" unicode="&#x6a4;" horiz-adv-x="632" arabic-form="initial" 
d="M0 0v140h134c-29 38 -48 85 -48 142c0 176 136 281 336 281h165v-563h-587zM226 282c0 -61 30 -110 76 -142h145v283h-59c-81 0 -162 -49 -162 -141zM488 654c-40 0 -75 24 -75 70c0 41 32 69 75 69c44 0 76 -28 76 -69c0 -46 -35 -70 -76 -70zM276 654
c-40 0 -75 24 -75 70c0 41 32 69 75 69s76 -28 76 -69c0 -46 -36 -70 -76 -70zM382 813c-35 0 -67 21 -67 61c0 36 28 61 67 61s67 -25 67 -61c0 -40 -31 -61 -67 -61z" />
    <glyph glyph-name="uni06A4.medi" unicode="&#x6a4;" horiz-adv-x="659" arabic-form="medial" 
d="M0 0v140h134c-29 38 -48 85 -48 142c0 176 136 281 336 281h165v-423h92v-140h-679zM226 282c0 -61 30 -110 76 -142h145v283h-59c-81 0 -162 -49 -162 -141zM487 654c-40 0 -75 24 -75 70c0 41 32 69 75 69c44 0 76 -28 76 -69c0 -46 -35 -70 -76 -70zM275 654
c-40 0 -75 24 -75 70c0 41 32 69 75 69s76 -28 76 -69c0 -46 -36 -70 -76 -70zM381 813c-35 0 -67 21 -67 61c0 36 28 61 67 61s67 -25 67 -61c0 -40 -31 -61 -67 -61z" />
    <glyph glyph-name="uni06A4.fina" unicode="&#x6a4;" horiz-adv-x="1086" arabic-form="final" 
d="M372 0c-119 0 -193 24 -254 82c-49 46 -67 126 -67 207v189h140v-172c0 -59 11 -102 42 -128c34 -29 90 -38 149 -38h163c-29 38 -48 85 -48 142c0 176 136 281 336 281h165v-423h107v-140h-733zM637 282c0 -61 30 -110 76 -142h145v283h-59c-81 0 -162 -49 -162 -141z
M913 654c-40 0 -75 24 -75 70c0 41 32 69 75 69c44 0 76 -28 76 -69c0 -46 -35 -70 -76 -70zM701 654c-40 0 -75 24 -75 70c0 41 32 69 75 69s76 -28 76 -69c0 -46 -36 -70 -76 -70zM807 813c-35 0 -67 21 -67 61c0 36 28 61 67 61s67 -25 67 -61c0 -40 -31 -61 -67 -61z
" />
    <glyph glyph-name="uni06A1.init" unicode="&#x6a1;" horiz-adv-x="632" 
d="M0 0v140h134c-29 38 -48 85 -48 142c0 176 136 281 336 281h165v-563h-587zM226 282c0 -61 30 -110 76 -142h145v283h-59c-81 0 -162 -49 -162 -141z" />
    <glyph glyph-name="uni06A1.medi" unicode="&#x6a1;" horiz-adv-x="660" 
d="M0 0v140h134c-29 38 -48 85 -48 142c0 176 136 281 336 281h165v-423h93v-140h-680zM226 282c0 -61 30 -110 76 -142h145v283h-59c-81 0 -162 -49 -162 -141z" />
    <glyph glyph-name="uni06A1.fina" unicode="&#x6a1;" horiz-adv-x="1148" 
d="M1143 0h-734c-119 0 -193 24 -254 82c-49 46 -67 126 -67 207v189h140v-172c0 -59 11 -102 42 -128c34 -29 90 -38 149 -38h163c-29 38 -48 85 -48 142c0 176 136 281 336 281h165v-423h108v-140zM674 282c0 -61 30 -110 76 -142h145v283h-59c-81 0 -162 -49 -162 -141z
" />
    <glyph glyph-name="uni066F.init" unicode="&#x66f;" horiz-adv-x="632" 
d="M0 0v140h134c-29 38 -48 85 -48 142c0 176 136 281 336 281h165v-563h-587zM226 282c0 -61 30 -110 76 -142h145v283h-59c-81 0 -162 -49 -162 -141z" />
    <glyph glyph-name="uni066F.medi" unicode="&#x66f;" horiz-adv-x="660" 
d="M0 0v140h134c-29 38 -48 85 -48 142c0 176 136 281 336 281h165v-423h93v-140h-680zM226 282c0 -61 30 -110 76 -142h145v283h-59c-81 0 -162 -49 -162 -141z" />
    <glyph glyph-name="uni066F.fina" unicode="&#x66f;" horiz-adv-x="903" 
d="M814 -220h-441c-119 0 -193 24 -254 82c-49 46 -67 126 -67 207v219h140v-202c0 -59 11 -102 42 -128c34 -29 90 -38 149 -38h291v80h-18c-191 0 -343 81 -343 282c0 175 143 281 343 281h158v-423h108v-140h-108v-220zM453 282c0 -93 72 -142 162 -142h59v283h-59
c-83 0 -162 -56 -162 -141z" />
    <glyph glyph-name="uni0642" unicode="&#x642;" horiz-adv-x="877" arabic-form="isolated" 
d="M814 -220h-441c-119 0 -193 24 -254 82c-49 46 -67 126 -67 207v219h140v-202c0 -59 11 -102 42 -128c34 -29 90 -38 149 -38h291v80h-18c-191 0 -343 81 -343 282c0 175 143 281 343 281h158v-783zM453 282c0 -93 72 -142 162 -142h59v283h-59c-83 0 -162 -56 -162 -141
zM729 648c-42 0 -78 25 -78 72c0 42 34 71 78 71c45 0 78 -29 78 -71c0 -47 -36 -72 -78 -72zM512 648c-42 0 -78 25 -78 72c0 42 34 71 78 71s78 -29 78 -71c0 -47 -36 -72 -78 -72z" />
    <glyph glyph-name="uni0642.init" unicode="&#x642;" horiz-adv-x="632" arabic-form="initial" 
d="M0 0v140h134c-29 38 -48 85 -48 142c0 176 136 281 336 281h165v-563h-587zM226 282c0 -61 30 -110 76 -142h145v283h-59c-81 0 -162 -49 -162 -141zM490 648c-42 0 -78 25 -78 72c0 42 34 71 78 71c45 0 78 -29 78 -71c0 -47 -36 -72 -78 -72zM273 648
c-42 0 -78 25 -78 72c0 42 34 71 78 71s78 -29 78 -71c0 -47 -36 -72 -78 -72z" />
    <glyph glyph-name="uni0642.medi" unicode="&#x642;" horiz-adv-x="659" arabic-form="medial" 
d="M0 0v140h134c-29 38 -48 85 -48 142c0 176 136 281 336 281h165v-423h92v-140h-679zM226 282c0 -61 30 -110 76 -142h145v283h-59c-81 0 -162 -49 -162 -141zM490 648c-42 0 -78 25 -78 72c0 42 34 71 78 71c45 0 78 -29 78 -71c0 -47 -36 -72 -78 -72zM273 648
c-42 0 -78 25 -78 72c0 42 34 71 78 71s78 -29 78 -71c0 -47 -36 -72 -78 -72z" />
    <glyph glyph-name="uni0642.fina" unicode="&#x642;" horiz-adv-x="903" arabic-form="final" 
d="M814 -220h-441c-119 0 -193 24 -254 82c-49 46 -67 126 -67 207v219h140v-202c0 -59 11 -102 42 -128c34 -29 90 -38 149 -38h291v80h-18c-191 0 -343 81 -343 282c0 175 143 281 343 281h158v-423h108v-140h-108v-220zM453 282c0 -93 72 -142 162 -142h59v283h-59
c-83 0 -162 -56 -162 -141zM732 648c-42 0 -78 25 -78 72c0 42 34 71 78 71c45 0 78 -29 78 -71c0 -47 -36 -72 -78 -72zM515 648c-42 0 -78 25 -78 72c0 42 34 71 78 71s78 -29 78 -71c0 -47 -36 -72 -78 -72z" />
    <glyph glyph-name="uni0643" unicode="&#x643;" horiz-adv-x="938" arabic-form="isolated" 
d="M410 0c-119 0 -193 24 -254 82c-49 46 -67 126 -67 207v189h140v-172c0 -59 11 -102 42 -128c34 -29 90 -38 149 -38h280v671h140v-811h-430zM364 349v73c0 90 48 124 126 124h60v-45h-52c-40 0 -54 -18 -54 -50v-27h138v-75h-218z" />
    <glyph glyph-name="uni0643.init" unicode="&#x643;" horiz-adv-x="816" arabic-form="initial" 
d="M0 0v140h623v107c0 40 -9 69 -27 92c-17 22 -49 39 -85 39h-418c-25 33 -46 79 -48 139l162 294h150l-155 -294h295c90 0 158 -22 208 -75c42 -45 58 -119 58 -201v-241h-763z" />
    <glyph glyph-name="uni0643.medi" unicode="&#x643;" horiz-adv-x="851" arabic-form="medial" 
d="M0 0v140h623v107c0 40 -9 69 -27 92c-17 22 -49 39 -85 39h-418c-25 33 -46 79 -48 139l162 294h150l-155 -294h295c90 0 158 -22 208 -75c42 -45 58 -119 58 -201v-101h107v-140h-870z" />
    <glyph glyph-name="uni0643.fina" unicode="&#x643;" horiz-adv-x="953" arabic-form="final" 
d="M410 0c-119 0 -193 24 -254 82c-49 46 -67 126 -67 207v189h140v-172c0 -59 11 -102 42 -128c34 -29 90 -38 149 -38h280v671h140v-671h108v-140h-538zM364 349v73c0 90 48 124 126 124h60v-45h-52c-40 0 -54 -18 -54 -50v-27h138v-75h-218z" />
    <glyph glyph-name="uni06A9" unicode="&#x6a9;" horiz-adv-x="1035" arabic-form="isolated" 
d="M982 0h-610c-119 0 -192 29 -249 85c-49 48 -72 124 -72 206v188h140v-171c0 -59 15 -99 47 -125c34 -29 87 -43 145 -43h459v116c0 34 -6 61 -24 84c-19 23 -51 38 -84 38h-308c-26 34 -47 79 -49 140l153 293h168l-163 -293h179c85 0 147 -23 195 -69
c49 -47 73 -118 73 -209v-240z" />
    <glyph glyph-name="uni06A9.init" unicode="&#x6a9;" horiz-adv-x="816" arabic-form="initial" 
d="M0 0v140h623v107c0 40 -9 69 -27 92c-17 22 -49 39 -85 39h-418c-25 33 -46 79 -48 139l162 294h150l-155 -294h295c90 0 158 -22 208 -75c42 -45 58 -119 58 -201v-241h-763z" />
    <glyph glyph-name="uni06A9.medi" unicode="&#x6a9;" horiz-adv-x="851" arabic-form="medial" 
d="M0 0v140h623v107c0 40 -9 69 -27 92c-17 22 -49 39 -85 39h-418c-25 33 -46 79 -48 139l162 294h150l-155 -294h295c90 0 158 -22 208 -75c42 -45 58 -119 58 -201v-101h107v-140h-870z" />
    <glyph glyph-name="uni06A9.fina" unicode="&#x6a9;" horiz-adv-x="1014" arabic-form="final" 
d="M1090 0h-718c-119 0 -192 29 -249 85c-49 48 -72 124 -72 206v188h140v-171c0 -59 15 -99 47 -125c34 -29 87 -43 145 -43h459v116c0 34 -6 61 -24 84c-19 23 -51 38 -84 38h-308c-26 34 -47 79 -49 140l153 293h168l-163 -293h179c85 0 147 -23 195 -69
c49 -47 73 -118 73 -209v-100h108v-140z" />
    <glyph glyph-name="uni06AF" unicode="&#x6af;" horiz-adv-x="965" arabic-form="isolated" 
d="M469 812l-146 -294h-85l146 294h85zM982 0h-610c-119 0 -192 29 -249 85c-49 48 -72 124 -72 206v188h140v-171c0 -59 15 -99 47 -125c34 -29 87 -43 145 -43h459v116c0 34 -6 61 -24 84c-19 23 -51 38 -84 38h-308c-26 34 -47 79 -49 140l153 293h168l-163 -293h179
c85 0 147 -23 195 -69c49 -47 73 -118 73 -209v-240z" />
    <glyph glyph-name="uni06AF.init" unicode="&#x6af;" horiz-adv-x="861" arabic-form="initial" 
d="M233 812l-146 -294h-85l146 294h85zM0 0v140h703v107c0 40 -9 69 -27 92c-17 22 -49 39 -85 39h-418c-25 33 -46 79 -48 139l162 294h150l-155 -294h295c90 0 158 -22 208 -75c42 -45 58 -119 58 -201v-241h-843z" />
    <glyph glyph-name="uni06AF.medi" unicode="&#x6af;" horiz-adv-x="910" arabic-form="medial" 
d="M0 0v140h703v107c0 40 -9 69 -27 92c-17 22 -49 39 -85 39h-418c-25 33 -46 79 -48 139l162 294h150l-155 -294h295c90 0 158 -22 208 -75c42 -45 58 -119 58 -201v-101h108v-140h-951zM234 812l-146 -294h-85l146 294h85z" />
    <glyph glyph-name="uni06AF.fina" unicode="&#x6af;" horiz-adv-x="1014" arabic-form="final" 
d="M1090 0h-718c-119 0 -192 29 -249 85c-49 48 -72 124 -72 206v188h140v-171c0 -59 15 -99 47 -125c34 -29 87 -43 145 -43h459v116c0 34 -6 61 -24 84c-19 23 -51 38 -84 38h-308c-26 34 -47 79 -49 140l153 293h168l-163 -293h179c85 0 147 -23 195 -69
c49 -47 73 -118 73 -209v-100h108v-140zM469 812l-146 -294h-85l146 294h85z" />
    <glyph glyph-name="uni0644" unicode="&#x644;" horiz-adv-x="681" arabic-form="isolated" 
d="M376 -125c-119 0 -193 24 -254 82c-49 46 -67 126 -67 207v327h140v-310c0 -59 11 -102 42 -128c34 -29 90 -38 149 -38h80v796h140v-936h-230z" />
    <glyph glyph-name="uni0644.init" unicode="&#x644;" horiz-adv-x="313" arabic-form="initial" 
d="M0 0v140h98v671h140v-811h-238z" />
    <glyph glyph-name="uni0644.medi" unicode="&#x644;" horiz-adv-x="346" arabic-form="medial" 
d="M0 0v140h98v671h140v-671h128v-140h-366z" />
    <glyph glyph-name="uni0644.fina" unicode="&#x644;" horiz-adv-x="714" arabic-form="final" 
d="M376 -125c-119 0 -193 24 -254 82c-49 46 -67 126 -67 207v327h140v-310c0 -59 11 -102 42 -128c34 -29 90 -38 149 -38h80v796h206v-140h-66v-531h128v-140h-128v-125h-230z" />
    <glyph glyph-name="uni0645" unicode="&#x645;" horiz-adv-x="914" arabic-form="isolated" 
d="M572 -110c-133 0 -247 89 -285 210c-39 -3 -65 -17 -82 -40c-22 -30 -30 -78 -30 -130v-150h-140v152c0 104 24 179 74 234c43 48 114 73 168 74c23 145 147 255 295 255c169 0 304 -133 304 -306c0 -170 -141 -299 -304 -299zM572 30c92 0 164 67 164 161
s-68 164 -164 164c-93 0 -159 -73 -159 -164c0 -90 69 -161 159 -161z" />
    <glyph glyph-name="uni0645.init" unicode="&#x645;" horiz-adv-x="730" arabic-form="initial" 
d="M0 0v140h97c-5 20 -7 42 -7 64c0 170 134 306 299 306c169 0 304 -133 304 -306c0 -170 -141 -299 -304 -299c-85 0 -163 37 -218 95h-171zM389 45c92 0 164 67 164 161s-68 164 -164 164c-93 0 -159 -73 -159 -164c0 -90 69 -161 159 -161z" />
    <glyph glyph-name="uni0645.medi" unicode="&#x645;" horiz-adv-x="778" arabic-form="medial" 
d="M0 0v140h97c-5 20 -7 42 -7 64c0 170 134 306 299 306c169 0 304 -133 304 -306c0 -22 -3 -44 -7 -64h112v-140h-187c-56 -59 -136 -95 -222 -95c-85 0 -163 37 -218 95h-171zM389 45c92 0 164 67 164 161s-68 164 -164 164c-93 0 -159 -73 -159 -164
c0 -90 69 -161 159 -161z" />
    <glyph glyph-name="uni0645.fina" unicode="&#x645;" horiz-adv-x="962" arabic-form="final" 
d="M572 -110c-133 0 -247 89 -285 210c-39 -3 -65 -17 -82 -40c-22 -30 -30 -78 -30 -130v-150h-140v152c0 104 24 179 74 234c43 48 114 73 168 74c23 145 147 255 295 255c169 0 304 -133 304 -306c0 -17 -2 -33 -4 -49h110v-140h-175c-56 -68 -142 -110 -235 -110z
M572 30c92 0 164 67 164 161s-68 164 -164 164c-93 0 -159 -73 -159 -164c0 -90 69 -161 159 -161z" />
    <glyph glyph-name="uni06BA" unicode="&#x6ba;" horiz-adv-x="667" arabic-form="isolated" 
d="M376 -125c-119 0 -193 24 -254 82c-49 46 -67 126 -67 207v327h140v-310c0 -59 11 -102 42 -128c34 -29 90 -38 149 -38h80v476h140v-616h-230z" />
    <glyph glyph-name="uni06BA.fina" unicode="&#x6ba;" horiz-adv-x="695" arabic-form="final" 
d="M376 -125c-119 0 -193 24 -254 82c-49 46 -67 126 -67 207v327h140v-310c0 -59 11 -102 42 -128c34 -29 90 -38 149 -38h80v476h140v-351h108v-140h-108v-125h-230z" />
    <glyph glyph-name="uni0646" unicode="&#x646;" horiz-adv-x="667" arabic-form="isolated" 
d="M376 -125c-119 0 -193 24 -254 82c-49 46 -67 126 -67 207v327h140v-310c0 -59 11 -102 42 -128c34 -29 90 -38 149 -38h80v476h140v-616h-230zM335 580c-44 0 -82 26 -82 75c0 44 36 74 82 74c47 0 82 -30 82 -74c0 -49 -38 -75 -82 -75z" />
    <glyph glyph-name="uni0646.init" unicode="&#x646;" horiz-adv-x="324" arabic-form="initial" 
d="M191 648c-44 0 -82 26 -82 75c0 44 36 74 82 74c47 0 82 -30 82 -74c0 -49 -38 -75 -82 -75zM0 0v140h124v423h140v-563h-264z" />
    <glyph glyph-name="uni0646.medi" unicode="&#x646;" horiz-adv-x="352" arabic-form="medial" 
d="M0 0v140h124v423h140v-423h107v-140h-371zM190 648c-44 0 -82 26 -82 75c0 44 36 74 82 74c47 0 82 -30 82 -74c0 -49 -38 -75 -82 -75z" />
    <glyph glyph-name="uni0646.fina" unicode="&#x646;" horiz-adv-x="695" arabic-form="final" 
d="M376 -125c-119 0 -193 24 -254 82c-49 46 -67 126 -67 207v327h140v-310c0 -59 11 -102 42 -128c34 -29 90 -38 149 -38h80v476h140v-351h108v-140h-108v-125h-230zM338 580c-44 0 -82 26 -82 75c0 44 36 74 82 74c47 0 82 -30 82 -74c0 -49 -38 -75 -82 -75z" />
    <glyph glyph-name="uniFEE9" unicode="&#x647;" horiz-adv-x="618" arabic-form="isolated" 
d="M397 0c-199 0 -342 91 -342 281c0 162 127 282 342 282h20v50h140v-613h-160zM356 140h61v283h-54c-82 0 -168 -52 -168 -142c0 -92 78 -141 161 -141z" />
    <glyph glyph-name="uni0647.init" unicode="&#x647;" horiz-adv-x="806" arabic-form="initial" 
d="M0 0v140h114c-4 19 -9 47 -9 72c0 149 79 231 207 231c121 0 209 -90 209 -230c0 -25 -4 -54 -8 -73h91c5 34 8 67 8 95c0 79 -16 139 -52 194c-45 68 -118 103 -230 103c-83 0 -159 -35 -212 -64l-47 127c90 45 195 78 295 78c148 0 243 -68 304 -157
c55 -81 82 -185 82 -305c0 -66 -19 -154 -37 -211h-715zM230 215c0 -29 4 -56 7 -75h152c3 19 7 46 7 75c0 63 -31 103 -84 103c-56 0 -82 -40 -82 -103z" />
    <glyph glyph-name="uni0647.medi" unicode="&#x647;" horiz-adv-x="822" arabic-form="medial" 
d="M0 0v140h114c-4 19 -9 47 -9 72c0 149 79 231 207 231c121 0 209 -90 209 -230c0 -25 -4 -54 -8 -73h91c5 34 8 67 8 95c0 79 -16 139 -52 194c-45 68 -118 103 -230 103c-83 0 -159 -35 -212 -64l-47 127c90 45 195 78 295 78c148 0 243 -68 304 -157
c55 -81 82 -185 82 -305c0 -22 -2 -46 -6 -71h96v-140h-842zM230 215c0 -29 4 -56 7 -75h152c3 19 7 46 7 75c0 63 -31 103 -84 103c-56 0 -82 -40 -82 -103z" />
    <glyph glyph-name="uni0647.fina" unicode="&#x647;" horiz-adv-x="630" arabic-form="final" 
d="M557 140h92v-140h-252c-199 0 -342 91 -342 281c0 162 127 282 342 282h20v50h140v-473zM356 140h61v283h-54c-82 0 -168 -52 -168 -142c0 -92 78 -141 161 -141z" />
    <glyph glyph-name="uni06BE" unicode="&#x6be;" horiz-adv-x="851" arabic-form="isolated" 
d="M85 0v140h114c-4 19 -9 47 -9 72c0 149 79 231 207 231c121 0 209 -90 209 -230c0 -25 -4 -54 -8 -73h91c5 34 8 67 8 95c0 79 -16 139 -52 194c-45 68 -118 103 -230 103c-83 0 -159 -35 -212 -64l-47 127c90 45 195 78 295 78c148 0 243 -68 304 -157
c55 -81 82 -185 82 -305c0 -66 -19 -154 -37 -211h-715zM315 215c0 -29 4 -56 7 -75h152c3 19 7 46 7 75c0 63 -31 103 -84 103c-56 0 -82 -40 -82 -103z" />
    <glyph glyph-name="uni06BE.init" unicode="&#x6be;" horiz-adv-x="766" arabic-form="initial" 
d="M0 0v140h114c-4 19 -9 47 -9 72c0 149 79 231 207 231c121 0 209 -90 209 -230c0 -25 -4 -54 -8 -73h91c5 34 8 67 8 95c0 79 -16 139 -52 194c-45 68 -118 103 -230 103c-83 0 -159 -35 -212 -64l-47 127c90 45 195 78 295 78c148 0 243 -68 304 -157
c55 -81 82 -185 82 -305c0 -66 -19 -154 -37 -211h-715zM230 215c0 -29 4 -56 7 -75h152c3 19 7 46 7 75c0 63 -31 103 -84 103c-56 0 -82 -40 -82 -103z" />
    <glyph glyph-name="uni06BE.medi" unicode="&#x6be;" horiz-adv-x="804" arabic-form="medial" 
d="M0 0v140h114c-4 19 -9 47 -9 72c0 149 79 231 207 231c121 0 209 -90 209 -230c0 -25 -4 -54 -8 -73h91c5 34 8 67 8 95c0 79 -16 139 -52 194c-45 68 -118 103 -230 103c-83 0 -159 -35 -212 -64l-47 127c90 45 195 78 295 78c148 0 243 -68 304 -157
c55 -81 82 -185 82 -305c0 -22 -2 -46 -6 -71h107v-140h-853zM230 215c0 -29 4 -56 7 -75h152c3 19 7 46 7 75c0 63 -31 103 -84 103c-56 0 -82 -40 -82 -103z" />
    <glyph glyph-name="uni06BE.fina" unicode="&#x6be;" horiz-adv-x="889" arabic-form="final" 
d="M85 0v140h114c-4 19 -9 47 -9 72c0 149 79 231 207 231c121 0 209 -90 209 -230c0 -25 -4 -54 -8 -73h91c5 34 8 67 8 95c0 79 -16 139 -52 194c-45 68 -118 103 -230 103c-83 0 -159 -35 -212 -64l-47 127c90 45 195 78 295 78c148 0 243 -68 304 -157
c55 -81 82 -185 82 -305c0 -22 -2 -46 -6 -71h106v-140h-852zM315 215c0 -29 4 -56 7 -75h152c3 19 7 46 7 75c0 63 -31 103 -84 103c-56 0 -82 -40 -82 -103z" />
    <glyph glyph-name="uni06C0" unicode="&#x6c0;" horiz-adv-x="572" arabic-form="isolated" 
d="M557 0h-160c-199 0 -342 91 -342 281c0 162 127 282 342 282h20v50h140v-613zM356 140h61v283h-54c-82 0 -168 -52 -168 -142c0 -92 78 -141 161 -141zM338 645v73c0 90 48 124 126 124h60v-45h-52c-40 0 -54 -18 -54 -50v-27h138v-75h-218z" />
    <glyph glyph-name="uni06C0.fina" unicode="&#x6c0;" horiz-adv-x="629" arabic-form="final" 
d="M397 0c-199 0 -342 91 -342 281c0 162 127 282 342 282h20v50h140v-473h92v-140h-252zM356 140h61v283h-54c-82 0 -168 -52 -168 -142c0 -92 78 -141 161 -141zM341 645v73c0 90 48 124 126 124h60v-45h-52c-40 0 -54 -18 -54 -50v-27h138v-75h-218z" />
    <glyph glyph-name="uni06C1" unicode="&#x6c1;" horiz-adv-x="572" arabic-form="isolated" 
d="M397 0c-199 0 -342 91 -342 281c0 162 127 282 342 282h20v50h140v-613h-160zM356 140h61v283h-54c-82 0 -168 -52 -168 -142c0 -92 78 -141 161 -141z" />
    <glyph glyph-name="uni06C1.init" unicode="&#x6c1;" horiz-adv-x="324" arabic-form="initial" 
d="M166 -226l-102 6l52 175l147 -7zM0 0v140h124v423h140v-563h-264z" />
    <glyph glyph-name="uni06C1.medi" unicode="&#x6c1;" horiz-adv-x="836" arabic-form="medial" 
d="M699 -220h-102l52 174h147zM538 -220h-173c-78 0 -151 15 -198 50c-43 33 -75 85 -75 149v21h-92v140h92v271h140v-412c0 -34 15 -65 38 -84c22 -17 49 -25 83 -25h45v250h458v-140h-318v-220z" />
    <glyph glyph-name="uni06C1.fina" unicode="&#x6c1;" horiz-adv-x="592" arabic-form="final" 
d="M612 0h-241v424h-63c-35 0 -63 -7 -85 -25c-23 -18 -37 -50 -37 -84v-167h-140v148c0 97 28 165 87 213c46 37 113 55 190 55h188v-424h101v-140z" />
    <glyph glyph-name="uni06D5.fina" unicode="&#x6d5;" horiz-adv-x="629" 
d="M557 140h92v-140h-252c-199 0 -342 91 -342 281c0 162 127 282 342 282h20v50h140v-473zM356 140h61v283h-54c-82 0 -168 -52 -168 -142c0 -92 78 -141 161 -141z" />
    <glyph glyph-name="uni0648" unicode="&#x648;" horiz-adv-x="616" arabic-form="isolated" 
d="M556 563l-1 -525c0 -152 -60 -258 -257 -258c-54 0 -85 7 -146 24l-10 141c54 -17 99 -25 146 -25c77 0 117 10 126 80h-16c-191 0 -343 81 -343 282c0 175 143 281 343 281h158zM195 282c0 -93 72 -142 162 -142h59v283h-59c-83 0 -162 -56 -162 -141z" />
    <glyph glyph-name="uni0648.fina" unicode="&#x648;" horiz-adv-x="629" arabic-form="final" 
d="M556 563l-1 -423h93v-140h-95c-10 -131 -75 -220 -255 -220c-54 0 -85 7 -146 24l-10 141c54 -17 99 -25 146 -25c77 0 117 10 126 80h-16c-191 0 -343 81 -343 282c0 175 143 281 343 281h158zM195 282c0 -93 72 -142 162 -142h59v283h-59c-83 0 -162 -56 -162 -141z
" />
    <glyph glyph-name="uni0624" unicode="&#x624;" horiz-adv-x="601" arabic-form="isolated" 
d="M556 563l-1 -525c0 -152 -60 -258 -257 -258c-54 0 -85 7 -146 24l-10 141c54 -17 99 -25 146 -25c77 0 117 10 126 80h-16c-191 0 -343 81 -343 282c0 175 143 281 343 281h158zM195 282c0 -93 72 -142 162 -142h59v283h-59c-83 0 -162 -56 -162 -141zM345 640v73
c0 90 48 124 126 124h60v-45h-52c-40 0 -54 -18 -54 -50v-27h138v-75h-218z" />
    <glyph glyph-name="uni0624.fina" unicode="&#x624;" horiz-adv-x="629" arabic-form="final" 
d="M556 563l-1 -423h93v-140h-95c-10 -131 -75 -220 -255 -220c-54 0 -85 7 -146 24l-10 141c54 -17 99 -25 146 -25c77 0 117 10 126 80h-16c-191 0 -343 81 -343 282c0 175 143 281 343 281h158zM195 282c0 -93 72 -142 162 -142h59v283h-59c-83 0 -162 -56 -162 -141z
M345 641v73c0 90 48 124 126 124h60v-45h-52c-40 0 -54 -18 -54 -50v-27h138v-75h-218z" />
    <glyph glyph-name="uni0649" unicode="&#x649;" horiz-adv-x="1053" arabic-form="isolated" 
d="M371 -125c-119 0 -193 24 -254 82c-49 46 -67 126 -67 207v219h140v-202c0 -59 11 -102 42 -128c34 -29 90 -38 149 -38h146v282c0 96 26 165 86 213c46 36 114 53 191 53h189v-563h-140v423h-64c-35 0 -62 -7 -85 -25s-37 -58 -37 -92v-431h-296z" />
    <glyph glyph-name="uni0649.init" unicode="&#x649;" horiz-adv-x="324" arabic-form="initial" 
d="M0 0v140h124v423h140v-563h-264z" />
    <glyph glyph-name="uni0649.medi" unicode="&#x649;" horiz-adv-x="352" arabic-form="medial" 
d="M0 0v140h124v423h140v-423h107v-140h-371z" />
    <glyph glyph-name="uni0649.fina" unicode="&#x649;" horiz-adv-x="1081" arabic-form="final" 
d="M371 -125c-119 0 -193 24 -254 82c-49 46 -67 126 -67 207v219h140v-202c0 -59 11 -102 42 -128c34 -29 90 -38 149 -38h146v282c0 96 26 165 86 213c46 36 114 53 191 53h189v-423h107v-140h-247v423h-64c-35 0 -62 -7 -85 -25s-37 -58 -37 -92v-431h-296z" />
    <glyph glyph-name="uni064A" unicode="&#x64a;" horiz-adv-x="984" arabic-form="isolated" 
d="M598 -125h-290c-139 0 -196 16 -286 67l56 123c65 -37 120 -50 185 -50h195v282c0 96 26 165 86 213c46 36 114 53 191 53h189v-563h-140v423h-64c-35 0 -62 -7 -85 -25s-37 -58 -37 -92v-431zM287 93c-44 0 -82 26 -82 75c0 44 36 74 82 74c47 0 82 -30 82 -74
c0 -49 -38 -75 -82 -75zM287 305c-44 0 -82 26 -82 75c0 44 36 74 82 74c47 0 82 -30 82 -74c0 -49 -38 -75 -82 -75z" />
    <glyph glyph-name="uni064A.init" unicode="&#x64a;" horiz-adv-x="426" arabic-form="initial" 
d="M111 -213c-42 0 -78 25 -78 71c0 43 34 72 78 72s78 -29 78 -72c0 -46 -36 -71 -78 -71zM328 -213c-42 0 -78 25 -78 71c0 43 34 72 78 72c45 0 78 -29 78 -72c0 -46 -36 -71 -78 -71zM0 0v140h209v423h140v-563h-349z" />
    <glyph glyph-name="uni064A.medi" unicode="&#x64a;" horiz-adv-x="513" arabic-form="medial" 
d="M0 0v140h209v423h140v-423h184v-140h-533zM380 -213c-42 0 -78 25 -78 71c0 43 34 72 78 72c45 0 78 -29 78 -72c0 -46 -36 -71 -78 -71zM163 -213c-42 0 -78 25 -78 71c0 43 34 72 78 72s78 -29 78 -72c0 -46 -36 -71 -78 -71z" />
    <glyph glyph-name="uni064A.fina" unicode="&#x64a;" horiz-adv-x="1012" arabic-form="final" 
d="M784 0v423h-64c-35 0 -62 -7 -85 -25s-37 -58 -37 -92v-431h-290c-139 0 -196 16 -286 67l56 123c65 -37 120 -50 185 -50h195v282c0 96 26 165 86 213c46 36 114 53 191 53h189v-423h107v-140h-247zM287 93c-44 0 -82 26 -82 75c0 44 36 74 82 74c47 0 82 -30 82 -74
c0 -49 -38 -75 -82 -75zM287 305c-44 0 -82 26 -82 75c0 44 36 74 82 74c47 0 82 -30 82 -74c0 -49 -38 -75 -82 -75z" />
    <glyph glyph-name="uni06CC" unicode="&#x6cc;" horiz-adv-x="1044" arabic-form="isolated" 
d="M428 -125c-119 0 -193 24 -254 82c-49 46 -67 126 -67 207v219h140v-202c0 -59 11 -102 42 -128c34 -29 90 -38 149 -38h146v282c0 96 26 165 86 213c46 36 114 53 191 53h189v-563h-140v423h-64c-35 0 -62 -7 -85 -25s-37 -58 -37 -92v-431h-296z" />
    <glyph glyph-name="uni06CC.init" unicode="&#x6cc;" horiz-adv-x="426" arabic-form="initial" 
d="M111 -213c-42 0 -78 25 -78 71c0 43 34 72 78 72s78 -29 78 -72c0 -46 -36 -71 -78 -71zM328 -213c-42 0 -78 25 -78 71c0 43 34 72 78 72c45 0 78 -29 78 -72c0 -46 -36 -71 -78 -71zM0 0v140h209v423h140v-563h-349z" />
    <glyph glyph-name="uni06CC.medi" unicode="&#x6cc;" horiz-adv-x="513" arabic-form="medial" 
d="M0 0v140h209v423h140v-423h184v-140h-533zM380 -213c-42 0 -78 25 -78 71c0 43 34 72 78 72c45 0 78 -29 78 -72c0 -46 -36 -71 -78 -71zM163 -213c-42 0 -78 25 -78 71c0 43 34 72 78 72s78 -29 78 -72c0 -46 -36 -71 -78 -71z" />
    <glyph glyph-name="uni06CC.fina" unicode="&#x6cc;" horiz-adv-x="1083" arabic-form="final" 
d="M428 -125c-119 0 -193 24 -254 82c-49 46 -67 126 -67 207v219h140v-202c0 -59 11 -102 42 -128c34 -29 90 -38 149 -38h146v282c0 96 26 165 86 213c46 36 114 53 191 53h189v-423h108v-140h-248v423h-64c-35 0 -62 -7 -85 -25s-37 -58 -37 -92v-431h-296z" />
    <glyph glyph-name="uni06D2" unicode="&#x6d2;" horiz-adv-x="986" arabic-form="isolated" 
d="M874 0h-834v198c0 83 21 151 62 197c49 54 114 80 206 80h43c34 0 56 17 56 53v42h140v-49c0 -139 -72 -186 -189 -186h-66c-36 0 -68 -13 -87 -37c-18 -23 -25 -53 -25 -92v-66h694v-140z" />
    <glyph glyph-name="uni06D2.fina" unicode="&#x6d2;" horiz-adv-x="782" arabic-form="final" 
d="M801 140v-140h-603c0 -28 6 -56 31 -75c20 -15 42 -25 80 -25h297v-120h-309c-92 0 -158 25 -206 79c-41 46 -57 116 -57 199v82h767z" />
    <glyph glyph-name="uni06D3" unicode="&#x6d3;" horiz-adv-x="909" arabic-form="isolated" 
d="M874 0h-834v198c0 83 21 151 62 197c49 54 114 80 206 80h43c34 0 56 17 56 53v42h140v-49c0 -139 -72 -186 -189 -186h-66c-36 0 -68 -13 -87 -37c-18 -23 -25 -53 -25 -92v-66h694v-140zM143 600v73c0 90 48 124 126 124h60v-45h-52c-40 0 -54 -18 -54 -50v-27h138v-75
h-218z" />
    <glyph glyph-name="uni06D3.fina" unicode="&#x6d3;" horiz-adv-x="655" arabic-form="final" 
d="M801 140v-140h-603c0 -28 6 -56 31 -75c20 -15 42 -25 80 -25h297v-120h-309c-92 0 -158 25 -206 79c-41 46 -57 116 -57 199v82h767zM28 216v73c0 90 48 124 126 124h60v-45h-52c-40 0 -54 -18 -54 -50v-27h138v-75h-218z" />
    <glyph glyph-name="uni0626" unicode="&#x626;" horiz-adv-x="1083" arabic-form="isolated" 
d="M41 454v73c0 90 48 124 126 124h60v-45h-52c-40 0 -54 -18 -54 -50v-27h138v-75h-218zM401 -125c-119 0 -193 24 -254 82c-49 46 -67 126 -67 207v219h140v-202c0 -59 11 -102 42 -128c34 -29 90 -38 149 -38h146v282c0 96 26 165 86 213c46 36 114 53 191 53h189v-563
h-140v423h-64c-35 0 -62 -7 -85 -25s-37 -58 -37 -92v-431h-296z" />
    <glyph glyph-name="uni0626.init" unicode="&#x626;" horiz-adv-x="324" arabic-form="initial" 
d="M82 640v73c0 90 48 124 126 124h60v-45h-52c-40 0 -54 -18 -54 -50v-27h138v-75h-218zM0 0v140h124v423h140v-563h-264z" />
    <glyph glyph-name="uni0626.medi" unicode="&#x626;" horiz-adv-x="352" arabic-form="medial" 
d="M0 0v140h124v423h140v-423h107v-140h-371zM80 640v73c0 90 48 124 126 124h60v-45h-52c-40 0 -54 -18 -54 -50v-27h138v-75h-218z" />
    <glyph glyph-name="uni0626.fina" unicode="&#x626;" horiz-adv-x="1111" arabic-form="final" 
d="M401 -125c-119 0 -193 24 -254 82c-49 46 -67 126 -67 207v219h140v-202c0 -59 11 -102 42 -128c34 -29 90 -38 149 -38h146v282c0 96 26 165 86 213c46 36 114 53 191 53h189v-423h107v-140h-247v423h-64c-35 0 -62 -7 -85 -25s-37 -58 -37 -92v-431h-296zM41 454v73
c0 90 48 124 126 124h60v-45h-52c-40 0 -54 -18 -54 -50v-27h138v-75h-218z" />
    <glyph glyph-name="uniFE70" unicode="&#xfe70;" arabic-form="isolated" 
d="M-16 720v47l224 32v-47zM-17 802v47l224 32v-47z" />
    <glyph glyph-name="uniFE72" unicode="&#xfe72;" arabic-form="isolated" 
d="M14 710l-41 106l47 19l25 -70l47 7c-4 10 -6 22 -6 31c0 44 24 86 83 86c44 0 74 -33 74 -81c0 -17 -1 -37 -6 -63zM130 806c0 -10 1 -18 4 -27l60 10c1 4 1 9 1 16c0 18 -10 35 -33 35c-17 0 -32 -13 -32 -34z" />
    <glyph glyph-name="uniFE74" unicode="&#xfe74;" arabic-form="isolated" 
d="M-16 -226v47l224 32v-47zM-17 -144v47l224 32v-47z" />
    <glyph glyph-name="uniFE76" unicode="&#xfe76;" arabic-form="isolated" 
d="M-11 695v50l224 32v-50z" />
    <glyph glyph-name="uniFE78" unicode="&#xfe78;" arabic-form="isolated" 
d="M-13 712l-5 47l79 13c-4 10 -6 22 -6 31c0 44 23 86 82 86c45 0 75 -33 75 -81c0 -17 -1 -37 -6 -63zM98 806c0 -10 1 -19 4 -27l60 10c1 4 2 9 2 16c0 18 -11 35 -33 35c-18 0 -33 -13 -33 -34z" />
    <glyph glyph-name="uniFE7A" unicode="&#xfe7a;" arabic-form="isolated" 
d="M-11 -226v50l224 32v-50z" />
    <glyph glyph-name="uniFE7C" unicode="&#xfe7c;" arabic-form="isolated" 
d="M42 698c-33 0 -63 18 -72 64l-11 56l49 10l10 -54c5 -23 16 -28 28 -28c18 0 30 14 30 41c0 13 -3 32 -7 52l50 7l10 -54c3 -15 13 -25 27 -25c18 0 28 9 28 29c0 17 -4 41 -14 66l50 11s12 -52 12 -72c0 -53 -30 -81 -80 -81c-18 0 -35 12 -43 24
c-10 -24 -33 -46 -67 -46z" />
    <glyph glyph-name="uniFE7E" unicode="&#xfe7e;" arabic-form="isolated" 
d="M64 701c-49 0 -80 27 -80 89c0 57 35 91 86 91c52 0 82 -36 82 -91s-38 -89 -88 -89zM67 748c18 0 37 8 37 41c0 31 -17 44 -37 44c-14 0 -35 -10 -35 -42c0 -36 17 -43 35 -43z" />
    <glyph glyph-name="uni0651064C" unicode="&#xfc5e;" arabic-form="isolated" 
d="M-110 166l-41 106l47 19l25 -70l47 7c-4 10 -6 22 -6 31c0 44 24 86 83 86c44 0 74 -33 74 -81c0 -17 -1 -37 -6 -63zM-39 0c-33 0 -63 18 -72 64l-11 56l49 10l10 -54c5 -23 16 -28 28 -28c18 0 30 14 30 41c0 13 -3 32 -7 52l50 7l10 -54c3 -15 13 -25 27 -25
c18 0 28 9 28 29c0 17 -4 41 -14 66l50 11s12 -52 12 -72c0 -53 -30 -81 -80 -81c-18 0 -35 12 -43 24c-10 -24 -33 -46 -67 -46zM6 262c0 -10 1 -18 4 -27l60 10c1 4 1 9 1 16c0 18 -10 35 -33 35c-17 0 -32 -13 -32 -34z" />
    <glyph glyph-name="uni0651064D" unicode="&#xfc5f;" arabic-form="isolated" 
d="M-55 161c-33 0 -63 18 -72 64l-11 56l49 10l10 -54c5 -23 16 -28 28 -28c18 0 30 14 30 41c0 13 -3 32 -7 52l50 7l10 -54c3 -15 13 -25 27 -25c18 0 28 9 28 29c0 17 -4 41 -14 66l50 11s12 -52 12 -72c0 -53 -30 -81 -80 -81c-18 0 -35 12 -43 24
c-10 -24 -33 -46 -67 -46zM-86 0v47l224 32v-47zM-87 82v47l224 32v-47z" />
    <glyph glyph-name="uni0651064E" unicode="&#xfc60;" arabic-form="isolated" 
d="M-53 0c-33 0 -63 18 -72 64l-11 56l49 10l10 -54c5 -23 16 -28 28 -28c18 0 30 14 30 41c0 13 -3 32 -7 52l50 7l10 -54c3 -15 13 -25 27 -25c18 0 28 9 28 29c0 17 -4 41 -14 66l50 11s12 -52 12 -72c0 -53 -30 -81 -80 -81c-18 0 -35 12 -43 24
c-10 -24 -33 -46 -67 -46zM-126 196v50l224 32v-50z" />
    <glyph glyph-name="uni0651064F" unicode="&#xfc61;" arabic-form="isolated" 
d="M-117 176l-5 47l79 13c-4 10 -6 22 -6 31c0 44 23 86 82 86c45 0 75 -33 75 -81c0 -17 -1 -37 -6 -63zM-53 0c-33 0 -63 18 -72 64l-11 56l49 10l10 -54c5 -23 16 -28 28 -28c18 0 30 14 30 41c0 13 -3 32 -7 52l50 7l10 -54c3 -15 13 -25 27 -25c18 0 28 9 28 29
c0 17 -4 41 -14 66l50 11s12 -52 12 -72c0 -53 -30 -81 -80 -81c-18 0 -35 12 -43 24c-10 -24 -33 -46 -67 -46zM-6 270c0 -10 1 -19 4 -27l60 10c1 4 2 9 2 16c0 18 -11 35 -33 35c-18 0 -33 -13 -33 -34z" />
    <glyph glyph-name="uni06510650" unicode="&#xfc62;" arabic-form="isolated" 
d="M-54 91c-33 0 -63 18 -72 64l-11 56l49 10l10 -54c5 -23 16 -28 28 -28c18 0 30 14 30 41c0 13 -3 32 -7 52l50 7l10 -54c3 -15 13 -25 27 -25c18 0 28 9 28 29c0 17 -4 41 -14 66l50 11s12 -52 12 -72c0 -53 -30 -81 -80 -81c-18 0 -35 12 -43 24
c-10 -24 -33 -46 -67 -46zM-87 0v50l224 32v-50z" />
    <glyph glyph-name="uni06510670" unicode="&#xfc63;" arabic-form="isolated" 
d="M-53 0c-33 0 -63 18 -72 64l-11 56l49 10l10 -54c5 -23 16 -28 28 -28c18 0 30 14 30 41c0 13 -3 32 -7 52l50 7l10 -54c3 -15 13 -25 27 -25c18 0 28 9 28 29c0 17 -4 41 -14 66l50 11s12 -52 12 -72c0 -53 -30 -81 -80 -81c-18 0 -35 12 -43 24
c-10 -24 -33 -46 -67 -46zM-37 200v194h56v-186z" />
    <glyph glyph-name=".notdef" horiz-adv-x="500" 
 />
    <glyph glyph-name=".null" horiz-adv-x="500" 
 />
    <glyph glyph-name="CR" horiz-adv-x="500" 
 />
    <glyph glyph-name="space" unicode=" " horiz-adv-x="300" 
 />
    <glyph glyph-name="space" unicode="&#xa0;" horiz-adv-x="300" 
 />
    <glyph glyph-name="uni0627.short" horiz-adv-x="345" 
d="M130 0v690h140v-690h-140z" />
    <glyph glyph-name="uni0627.shortfina" horiz-adv-x="378" 
d="M130 0v690h140v-550h128v-140h-268z" />
    <glyph glyph-name="uni066E" unicode="&#x66e;" horiz-adv-x="863" 
d="M372 0c-119 0 -193 24 -254 82c-49 46 -67 126 -67 207v189h140v-172c0 -59 11 -102 42 -128c34 -29 90 -38 149 -38h280v423h140v-563h-430z" />
    <glyph glyph-name="uni066E.initalt" horiz-adv-x="410" 
d="M0 0v140h209v423h140v-563h-349z" />
    <glyph glyph-name="uni066E.medialt" horiz-adv-x="513" 
d="M0 0v140h209v423h140v-423h184v-140h-533z" />
    <glyph glyph-name="uni06C3" unicode="&#x6c3;" horiz-adv-x="572" 
d="M557 0h-160c-199 0 -342 91 -342 281c0 162 127 282 342 282h20v50h140v-613zM356 140h61v283h-54c-82 0 -168 -52 -168 -142c0 -92 78 -141 161 -141zM475 687c-42 0 -78 25 -78 72c0 42 34 71 78 71c45 0 78 -29 78 -71c0 -47 -36 -72 -78 -72zM258 687
c-42 0 -78 25 -78 72c0 42 34 71 78 71s78 -29 78 -71c0 -47 -36 -72 -78 -72z" />
    <glyph glyph-name="uni06C3.fina" horiz-adv-x="533" 
d="M612 0h-241v424h-63c-35 0 -63 -7 -85 -25c-23 -18 -37 -50 -37 -84v-167h-140v148c0 97 28 165 87 213c46 37 113 55 190 55h188v-424h101v-140zM208 639c-42 0 -78 25 -78 72c0 42 34 71 78 71s78 -29 78 -71c0 -47 -36 -72 -78 -72zM425 639c-42 0 -78 25 -78 72
c0 42 34 71 78 71c45 0 78 -29 78 -71c0 -47 -36 -72 -78 -72z" />
    <glyph glyph-name="uni06A1" unicode="&#x6a1;" horiz-adv-x="1133" 
d="M1035 0h-626c-119 0 -193 24 -254 82c-49 46 -67 126 -67 207v189h140v-172c0 -59 11 -102 42 -128c34 -29 90 -38 149 -38h163c-29 38 -48 85 -48 142c0 176 136 281 336 281h165v-563zM674 282c0 -61 30 -110 76 -142h145v283h-59c-81 0 -162 -49 -162 -141z" />
    <glyph glyph-name="uni066F" unicode="&#x66f;" horiz-adv-x="875" 
d="M814 -220h-441c-119 0 -193 24 -254 82c-49 46 -67 126 -67 207v219h140v-202c0 -59 11 -102 42 -128c34 -29 90 -38 149 -38h291v80h-18c-191 0 -343 81 -343 282c0 175 143 281 343 281h158v-783zM453 282c0 -93 72 -142 162 -142h59v283h-59c-83 0 -162 -56 -162 -141
z" />
    <glyph glyph-name="uni06BA.init" horiz-adv-x="324" 
d="M191 648c-44 0 -82 26 -82 75c0 44 36 74 82 74c47 0 82 -30 82 -74c0 -49 -38 -75 -82 -75zM0 0v140h124v423h140v-563h-264z" />
    <glyph glyph-name="uni06BA.medi" horiz-adv-x="352" 
d="M0 0v140h124v423h140v-423h107v-140h-371zM190 648c-44 0 -82 26 -82 75c0 44 36 74 82 74c47 0 82 -30 82 -74c0 -49 -38 -75 -82 -75z" />
    <glyph glyph-name="uni0647" unicode="&#x647;" horiz-adv-x="851" 
d="M85 0v140h114c-4 19 -9 47 -9 72c0 149 79 231 207 231c121 0 209 -90 209 -230c0 -25 -4 -54 -8 -73h91c5 34 8 67 8 95c0 79 -16 139 -52 194c-45 68 -118 103 -230 103c-83 0 -159 -35 -212 -64l-47 127c90 45 195 78 295 78c148 0 243 -68 304 -157
c55 -81 82 -185 82 -305c0 -66 -19 -154 -37 -211h-715zM315 215c0 -29 4 -56 7 -75h152c3 19 7 46 7 75c0 63 -31 103 -84 103c-56 0 -82 -40 -82 -103z" />
    <glyph glyph-name="uni06C2" unicode="&#x6c2;" horiz-adv-x="572" 
d="M557 0h-160c-199 0 -342 91 -342 281c0 162 127 282 342 282h20v50h140v-613zM356 140h61v283h-54c-82 0 -168 -52 -168 -142c0 -92 78 -141 161 -141zM340 645v73c0 90 48 124 126 124h60v-45h-52c-40 0 -54 -18 -54 -50v-27h138v-75h-218z" />
    <glyph glyph-name="uni06C2.fina" horiz-adv-x="533" 
d="M612 0h-241v424h-63c-35 0 -63 -7 -85 -25c-23 -18 -37 -50 -37 -84v-167h-140v148c0 97 28 165 87 213c46 37 113 55 190 55h188v-424h101v-140zM298 645v73c0 90 48 124 126 124h60v-45h-52c-40 0 -54 -18 -54 -50v-27h138v-75h-218z" />
    <glyph glyph-name="uni06D5" unicode="&#x6d5;" horiz-adv-x="572" 
d="M397 0c-199 0 -342 91 -342 281c0 162 127 282 342 282h20v50h140v-613h-160zM356 140h61v283h-54c-82 0 -168 -52 -168 -142c0 -92 78 -141 161 -141z" />
    <glyph glyph-name="uni0640" unicode="&#x1a0;" horiz-adv-x="177" 
d="M0 0v140h197v-140h-197z" />
    <glyph glyph-name="uni0640" unicode="&#x640;" horiz-adv-x="177" 
d="M0 0v140h197v-140h-197z" />
    <glyph glyph-name="wasle" horiz-adv-x="99" 
d="M-39 0l45 140h113v-140h-158z" />
    <glyph glyph-name="wasle_alt" horiz-adv-x="175" 
d="M-39 0l45 140h189v-140h-234z" />
    <glyph glyph-name="uni0654" unicode="&#x654;" horiz-adv-x="335" 
d="M66 725v46c0 90 48 124 126 124h50v-45h-42c-40 0 -54 -18 -54 -50h128v-75h-208z" />
    <glyph glyph-name="uni0654.medi" horiz-adv-x="335" 
d="M56 610v73c0 90 48 124 126 124h60v-45h-52c-40 0 -54 -18 -54 -50v-27h138v-75h-218z" />
    <glyph glyph-name="uni0655" unicode="&#x655;" horiz-adv-x="335" 
d="M192 -207c-78 0 -126 34 -126 124v46h208v-75h-128c0 -32 14 -50 54 -50h42v-45h-50z" />
    <glyph glyph-name="uni0654064B" 
d="M-94 0v36c0 90 48 124 126 124h50v-45h-42c-40 0 -54 -18 -54 -50h128v-65h-208zM-113 191v47l224 32v-47zM-114 273v47l224 32v-47z" />
    <glyph glyph-name="uni0654064E" 
d="M-112 193v50l224 32v-50zM-95 0v36c0 90 48 124 126 124h50v-45h-42c-40 0 -54 -18 -54 -50h128v-65h-208z" />
    <glyph glyph-name="uni0654064C" 
d="M-94 184l-41 106l47 19l25 -70l47 7c-4 10 -6 22 -6 31c0 44 24 86 83 86c44 0 74 -33 74 -81c0 -17 -1 -37 -6 -63zM-77 0v36c0 90 48 124 126 124h50v-45h-42c-40 0 -54 -18 -54 -50h128v-65h-208zM22 280c0 -10 1 -18 4 -27l60 10c1 4 1 9 1 16c0 18 -10 35 -33 35
c-17 0 -32 -13 -32 -34z" />
    <glyph glyph-name="uni0654064F" 
d="M-112 183l-5 47l79 13c-4 10 -6 22 -6 31c0 44 23 86 82 86c45 0 75 -33 75 -81c0 -17 -1 -37 -6 -63zM-91 -1v36c0 90 48 124 126 124h50v-45h-42c-40 0 -54 -18 -54 -50h128v-65h-208zM-1 277c0 -10 1 -19 4 -27l60 10c1 4 2 9 2 16c0 18 -11 35 -33 35
c-18 0 -33 -13 -33 -34z" />
    <glyph glyph-name="uni06540652" 
d="M-3 192c-49 0 -80 27 -80 89c0 57 35 91 86 91c52 0 82 -36 82 -91s-38 -89 -88 -89zM0 239c18 0 37 8 37 41c0 31 -17 44 -37 44c-14 0 -35 -10 -35 -42c0 -36 17 -43 35 -43zM-104 0v36c0 90 48 124 126 124h50v-45h-42c-40 0 -54 -18 -54 -50h128v-65h-208z" />
    <glyph glyph-name="uni0654064D" 
d="M-110 -336v47l224 32v-47zM-111 -254v47l224 32v-47zM-113 -160v36c0 90 48 124 126 124h50v-45h-42c-40 0 -54 -18 -54 -50h128v-65h-208z" />
    <glyph glyph-name="uni06550650" 
d="M-113 -160v36c0 90 48 124 126 124h50v-45h-42c-40 0 -54 -18 -54 -50h128v-65h-208zM-111 -265v50l224 32v-50z" />
    <glyph glyph-name="uni0653" unicode="&#x653;" horiz-adv-x="335" 
d="M31 725v65h273v-65h-273z" />
    <glyph glyph-name="wasla" 
d="M-136 0v55h69c0 47 34 92 91 92c68 0 113 -36 113 -108v-39h-273zM22 102c-30 0 -44 -22 -44 -47h89c0 24 -14 47 -45 47z" />
    <glyph glyph-name="uni0615" unicode="&#x615;" 
d="M-27 203v-56h51c68 0 113 -36 113 -108v-39h-273v55h50v148h59zM25 102h-52v-47h94c0 24 -16 47 -42 47z" />
    <glyph glyph-name="uni0658" unicode="&#x658;" 
d="M7 0c-97 0 -128 36 -128 124v81h60v-79c0 -45 21 -66 69 -66h53v145h60v-205h-114zM-13 127l-10 177h56l-10 -172z" />
    <glyph glyph-name="uni0670" unicode="&#x670;" 
d="M-28 0v194h56v-186z" />
    <glyph glyph-name="uni0656" unicode="&#x656;" 
d="M-28 -194v194h56v-186z" />
    <glyph glyph-name="uni064B" unicode="&#x64b;" 
d="M-111 0v47l224 32v-47zM-112 82v47l224 32v-47z" />
    <glyph glyph-name="uni064C" unicode="&#x64c;" 
d="M-94 0l-41 106l47 19l25 -70l47 7c-4 10 -6 22 -6 31c0 44 24 86 83 86c44 0 74 -33 74 -81c0 -17 -1 -37 -6 -63zM22 96c0 -10 1 -18 4 -27l60 10c1 4 1 9 1 16c0 18 -10 35 -33 35c-17 0 -32 -13 -32 -34z" />
    <glyph glyph-name="uni064D" unicode="&#x64d;" 
d="M-111 -161v47l224 32v-47zM-112 -79v47l224 32v-47z" />
    <glyph glyph-name="uni064E" unicode="&#x64e;" 
d="M-112 0v50l224 32v-50z" />
    <glyph glyph-name="uni064F" unicode="&#x64f;" 
d="M-110 2l-5 47l79 13c-4 10 -6 22 -6 31c0 44 23 86 82 86c45 0 75 -33 75 -81c0 -17 -1 -37 -6 -63zM1 96c0 -10 1 -19 4 -27l60 10c1 4 2 9 2 16c0 18 -11 35 -33 35c-18 0 -33 -13 -33 -34z" />
    <glyph glyph-name="uni0650" unicode="&#x650;" 
d="M-112 -82v50l224 32v-50z" />
    <glyph glyph-name="uni0651" unicode="&#x651;" 
d="M-53 0c-33 0 -63 18 -72 64l-11 56l49 10l10 -54c5 -23 16 -28 28 -28c18 0 30 14 30 41c0 13 -3 32 -7 52l50 7l10 -54c3 -15 13 -25 27 -25c18 0 28 9 28 29c0 17 -4 41 -14 66l50 11s12 -52 12 -72c0 -53 -30 -81 -80 -81c-18 0 -35 12 -43 24
c-10 -24 -33 -46 -67 -46z" />
    <glyph glyph-name="uni0652" unicode="&#x652;" 
d="M-4 0c-49 0 -80 27 -80 89c0 57 35 91 86 91c52 0 82 -36 82 -91s-38 -89 -88 -89zM-1 47c18 0 37 8 37 41c0 31 -17 44 -37 44c-14 0 -35 -10 -35 -42c0 -36 17 -43 35 -43z" />
    <glyph glyph-name="uni0651064B" 
d="M-53 0c-33 0 -63 18 -72 64l-11 56l49 10l10 -54c5 -23 16 -28 28 -28c18 0 30 14 30 41c0 13 -3 32 -7 52l50 7l10 -54c3 -15 13 -25 27 -25c18 0 28 9 28 29c0 17 -4 41 -14 66l50 11s12 -52 12 -72c0 -53 -30 -81 -80 -81c-18 0 -35 12 -43 24
c-10 -24 -33 -46 -67 -46zM-124 168v47l224 32v-47zM-125 250v47l224 32v-47z" />
    <glyph glyph-name="uni0660" unicode="&#x660;" horiz-adv-x="494" 
d="M134 319l113 113l113 -113l-113 -113z" />
    <glyph glyph-name="uni0661" unicode="&#x661;" horiz-adv-x="439" 
d="M289 0h-140v674h140v-674z" />
    <glyph glyph-name="uni0662" unicode="&#x662;" horiz-adv-x="714" 
d="M277 0h-140v674h140v-277c28 -11 65 -17 95 -17c79 0 113 41 113 121v173h140v-196c0 -157 -81 -238 -238 -238c-33 0 -78 7 -110 18v-258z" />
    <glyph glyph-name="uni0663" unicode="&#x663;" horiz-adv-x="811" 
d="M289 0h-140v674h140v-288c13 -4 24 -6 37 -6c54 0 67 24 67 101v193h120v-198c0 -30 -1 -55 -4 -77c14 -3 27 -4 40 -4c36 0 54 23 54 98v181h140v-215c0 -138 -72 -204 -193 -204c-28 0 -65 9 -96 22c-35 -28 -82 -37 -114 -37c-16 0 -34 2 -51 6v-246z" />
    <glyph glyph-name="uni0664" unicode="&#x664;" horiz-adv-x="677" 
d="M588 0h-235c-144 0 -234 55 -234 173c0 60 28 109 72 147c-28 51 -44 102 -44 160c0 127 84 223 239 223c71 0 139 -23 206 -48l-45 -124c-68 25 -94 32 -151 32c-58 0 -109 -33 -109 -93c0 -35 5 -60 17 -86c25 9 51 17 78 24l117 28l24 -118l-158 -38
c-59 -14 -104 -36 -104 -80c0 -54 77 -60 121 -60h206v-140z" />
    <glyph glyph-name="uni0665" unicode="&#x665;" horiz-adv-x="707" 
d="M348 -10c-150 0 -258 76 -258 254c0 239 123 443 263 443c125 0 264 -173 264 -443c0 -188 -111 -254 -269 -254zM350 130c88 0 127 40 127 140c0 140 -45 277 -127 277c-74 0 -120 -138 -120 -277c0 -99 38 -140 120 -140z" />
    <glyph glyph-name="uni0666" unicode="&#x666;" horiz-adv-x="636" 
d="M499 0h-140v534h-282v140h422v-674z" />
    <glyph glyph-name="uni0667" unicode="&#x667;" horiz-adv-x="752" 
d="M476 0h-208l-203 674h147l159 -533h4l166 533h147z" />
    <glyph glyph-name="uni0668" unicode="&#x668;" horiz-adv-x="752" 
d="M268 674h208l212 -674h-147l-166 533h-4l-159 -533h-147z" />
    <glyph glyph-name="uni0669" unicode="&#x669;" horiz-adv-x="729" 
d="M592 0h-140v173c-22 -3 -46 -5 -65 -5c-165 0 -292 74 -292 247c0 178 140 259 340 259h157v-674zM378 308c27 0 50 1 74 3v223h-53c-102 0 -164 -36 -164 -119c0 -77 58 -107 143 -107z" />
    <glyph glyph-name="uni06F0" unicode="&#x6f0;" horiz-adv-x="468" 
d="M122 319l113 113l113 -113l-113 -113z" />
    <glyph glyph-name="uni06F1" unicode="&#x6f1;" horiz-adv-x="405" 
d="M273 0h-140v674h140v-674z" />
    <glyph glyph-name="uni06F2" unicode="&#x6f2;" horiz-adv-x="625" 
d="M261 0h-140v674h140v-277c28 -11 65 -17 95 -17c79 0 113 41 113 121v173h140v-196c0 -157 -81 -238 -238 -238c-33 0 -78 7 -110 18v-258z" />
    <glyph glyph-name="uni06F3" unicode="&#x6f3;" horiz-adv-x="715" 
d="M289 0h-140v674h140v-288c13 -4 24 -6 37 -6c54 0 67 24 67 101v193h120v-198c0 -30 -1 -55 -4 -77c14 -3 27 -4 40 -4c36 0 54 23 54 98v181h140v-215c0 -138 -72 -204 -193 -204c-28 0 -65 9 -96 22c-35 -28 -82 -37 -114 -37c-16 0 -34 2 -51 6v-246z" />
    <glyph glyph-name="uni06F4" unicode="&#x6f4;" horiz-adv-x="805" 
d="M277 0h-140v674h140v-264c23 -6 62 -14 108 -19c-16 42 -26 87 -26 122c0 103 63 190 187 190c44 0 73 -8 127 -29l-37 -108c-32 13 -47 17 -75 17c-39 0 -81 -32 -81 -89c0 -35 7 -69 24 -104c70 7 115 25 163 48l49 -128c-94 -39 -177 -62 -268 -62
c-43 0 -118 9 -171 23v-271z" />
    <glyph glyph-name="uni06F5" unicode="&#x6f5;" horiz-adv-x="670" 
d="M252 -10c-94 0 -165 84 -165 231c0 140 66 261 175 371c-35 28 -68 51 -84 61l83 113c101 -66 188 -139 254 -222c69 -87 115 -205 115 -321c0 -148 -73 -233 -167 -233c-50 0 -82 19 -105 65c-25 -45 -56 -65 -106 -65zM383 486l-15 16c-80 -69 -141 -154 -141 -262
c0 -65 11 -111 52 -111c44 0 50 41 50 82h59c0 -41 6 -81 48 -81s54 38 54 106c0 96 -42 176 -107 250z" />
    <glyph glyph-name="uni06F6" unicode="&#x6f6;" horiz-adv-x="678" 
d="M262 0h-140v133c0 77 29 130 80 168c-35 58 -55 114 -55 179c0 127 84 223 239 223c71 0 139 -23 206 -48l-45 -124c-68 25 -94 32 -151 32c-58 0 -109 -33 -109 -93c0 -47 10 -76 32 -114l35 9l152 38l29 -137l-133 -32c-77 -18 -140 -56 -140 -133v-101z" />
    <glyph glyph-name="uni06F7" unicode="&#x6f7;" horiz-adv-x="630" 
d="M416 0h-208l-203 674h147l159 -533h4l166 533h147z" />
    <glyph glyph-name="uni06F8" unicode="&#x6f8;" horiz-adv-x="630" 
d="M221 674h208l212 -674h-147l-166 533h-4l-159 -533h-147z" />
    <glyph glyph-name="uni06F9" unicode="&#x6f9;" horiz-adv-x="633" 
d="M525 0h-140v173c-22 -3 -46 -5 -65 -5c-165 0 -292 74 -292 247c0 178 140 259 340 259h157v-674zM311 308c27 0 50 1 74 3v223h-53c-102 0 -164 -36 -164 -119c0 -77 58 -107 143 -107z" />
    <glyph glyph-name="uni06F4.urdu" horiz-adv-x="730" 
d="M277 0h-140v674h140l187 -167l191 167v-184l-191 -164l-187 155v-481z" />
    <glyph glyph-name="uni06F7.urdu" horiz-adv-x="575" 
d="M500 0h-425v141l229 533h152l-229 -534h273v-140z" />
    <glyph glyph-name="uni060C" unicode="&#x60c;" horiz-adv-x="393" 
d="M343 267l-95 -303h-148l130 303h113z" />
    <glyph glyph-name="uni061B" unicode="&#x61b;" horiz-adv-x="417" 
d="M192 -11c-47 0 -92 30 -92 79c0 50 45 82 92 82s92 -32 92 -82c0 -49 -45 -79 -92 -79zM367 655l-95 -303h-148l130 303h113z" />
    <glyph glyph-name="uni066B" unicode="&#x66b;" horiz-adv-x="393" 
d="M343 267l-95 -303h-148l130 303h113z" />
    <glyph glyph-name="uni066C" unicode="&#x66c;" horiz-adv-x="393" 
d="M343 757l-95 -303h-148l130 303h113z" />
    <glyph glyph-name="uni061F" unicode="&#x61f;" horiz-adv-x="571" 
d="M363 -12c-48 0 -94 32 -94 83s46 84 94 84s95 -33 95 -84s-47 -83 -95 -83zM370 654c-74 0 -153 -47 -153 -125c0 -97 95 -130 203 -130h12v-197h-140v91c-120 28 -222 108 -222 249c0 152 125 249 286 249c78 0 132 -15 177 -33l18 -145c-55 24 -119 41 -181 41z" />
    <glyph glyph-name="uni066A" unicode="&#x66a;" horiz-adv-x="652" 
d="M75 -125l369 1010h133l-366 -1010h-136zM480 59c-47 0 -92 30 -92 79c0 50 45 82 92 82s92 -32 92 -82c0 -49 -45 -79 -92 -79zM185 565c-47 0 -92 30 -92 79c0 50 45 82 92 82s92 -32 92 -82c0 -49 -45 -79 -92 -79z" />
    <glyph glyph-name="uni066D" unicode="&#x66d;" horiz-adv-x="585" 
d="M559 400l-156 -124l53 -192l-166 110l-166 -110l53 192l-156 124l199 9l70 187l69 -187z" />
    <glyph glyph-name="uni274A" unicode="&#x274a;" horiz-adv-x="550" 
d="M247 545v-15c-27 -12 -70 -20 -118 -20c-44 0 -93 10 -119 20v16c28 14 72 21 119 21c48 0 93 -12 118 -22zM540 545v-15c-27 -12 -70 -20 -118 -20c-45 0 -94 10 -119 20v16c28 14 71 21 119 21s92 -12 118 -22zM268 510h15c12 -27 20 -70 20 -118
c0 -44 -10 -93 -20 -119h-16c-14 28 -21 72 -21 119c0 48 12 93 22 118zM268 803h15c12 -27 20 -70 20 -118c0 -45 -10 -94 -20 -119h-16c-14 28 -21 71 -21 119s12 92 22 118zM250 523l11 -10c-11 -27 -35 -65 -69 -98c-32 -31 -74 -59 -98 -70l-12 12c10 30 36 65 70 98
c33 34 74 58 98 68zM457 730l11 -11c-11 -27 -36 -63 -70 -97c-31 -32 -73 -59 -98 -70l-11 11c10 31 35 66 69 100c33 33 74 56 99 67zM290 513l10 11c27 -11 65 -35 98 -69c31 -32 59 -74 70 -98l-12 -12c-30 10 -65 36 -98 70c-34 33 -58 74 -68 98zM83 720l11 11
c27 -11 63 -36 97 -70c32 -31 59 -73 70 -98l-11 -11c-31 10 -66 35 -100 69c-33 33 -56 74 -67 99z" />
    <glyph glyph-name="uni25CC" unicode="&#x25cc;" horiz-adv-x="685" 
d="M311 448c0 17 14 31 32 31c17 0 31 -14 31 -31c0 -18 -14 -32 -31 -32c-18 0 -32 14 -32 32zM207 423c0 17 14 31 32 31c17 0 31 -14 31 -31c0 -18 -14 -32 -31 -32c-18 0 -32 14 -32 32zM418 423c0 17 14 31 31 31c18 0 31 -14 31 -31c0 -18 -13 -32 -31 -32
c-17 0 -31 14 -31 32zM498 341c0 17 14 31 31 31s31 -14 31 -31s-14 -31 -31 -31s-31 14 -31 31zM129 341c0 17 13 31 31 31c17 0 31 -14 31 -31s-14 -31 -31 -31c-18 0 -31 14 -31 31zM100 233c0 17 14 31 31 31c18 0 31 -14 31 -31c0 -18 -13 -31 -31 -31
c-17 0 -31 13 -31 31zM523 233c0 17 14 31 31 31s31 -14 31 -31c0 -18 -14 -31 -31 -31s-31 13 -31 31zM498 128c0 17 14 31 31 31s31 -14 31 -31s-14 -31 -31 -31s-31 14 -31 31zM129 128c0 17 13 31 31 31c17 0 31 -14 31 -31s-14 -31 -31 -31c-18 0 -31 14 -31 31z
M207 51c0 17 14 31 32 31c17 0 31 -14 31 -31c0 -18 -14 -31 -31 -31c-18 0 -32 13 -32 31zM418 51c0 17 14 31 31 31c18 0 31 -14 31 -31c0 -18 -13 -31 -31 -31c-17 0 -31 13 -31 31zM311 22c0 18 14 31 32 31c17 0 31 -13 31 -31c0 -17 -14 -31 -31 -31
c-18 0 -32 14 -32 31z" />
    <glyph glyph-name="uniFD3E" unicode="&#xfd3e;" horiz-adv-x="365" 
d="M291 -220c-138 0 -178 35 -178 169v170c0 70 -11 124 -83 126v102c72 2 83 56 83 127v168c0 134 40 169 178 169h59v-101h-32c-61 0 -65 -13 -65 -74v-176c0 -113 -40 -147 -96 -162v-2c56 -16 96 -51 96 -163v-178c0 -61 4 -74 65 -74h32v-101h-59z" />
    <glyph glyph-name="uniFD3F" unicode="&#xfd3f;" horiz-adv-x="365" 
d="M73 -220h-58v101h23c62 0 73 13 73 74v178c0 112 40 147 96 163v2c-56 15 -96 49 -96 162v176c0 61 -11 74 -73 74h-23v101h58c138 0 178 -35 178 -169v-168c0 -71 11 -125 84 -127v-102c-73 -2 -84 -56 -84 -126v-170c0 -134 -40 -169 -178 -169z" />
    <glyph glyph-name="zero" unicode="0" horiz-adv-x="785" 
d="M392 125c123 0 192 95 192 281s-69 284 -192 284s-191 -98 -191 -284s68 -281 191 -281zM392 -12c-223 0 -337 169 -337 418s114 420 337 420c224 0 338 -171 338 -420s-114 -418 -338 -418z" />
    <glyph glyph-name="one" unicode="1" horiz-adv-x="436" 
d="M196 0v661l-186 -43v127l326 74v-819h-140z" />
    <glyph glyph-name="two" unicode="2" horiz-adv-x="697" 
d="M310 689c-77 0 -138 -28 -195 -73l-65 123c72 54 172 87 276 87c160 0 293 -76 293 -234c0 -161 -131 -289 -369 -462h382v-130h-592v126c229 168 431 311 431 440c0 84 -76 123 -161 123z" />
    <glyph glyph-name="three" unicode="3" horiz-adv-x="702" 
d="M312 -12c-101 0 -210 32 -282 86l64 124c57 -46 125 -73 203 -73c102 0 193 36 193 117c0 89 -84 110 -208 110h-23v132h21c130 0 190 23 190 97c0 70 -72 108 -168 108c-78 0 -143 -28 -200 -73l-64 124c72 53 176 86 277 86c175 0 301 -80 301 -220
c0 -89 -53 -160 -117 -183c79 -24 138 -87 138 -197c0 -156 -138 -238 -325 -238z" />
    <glyph glyph-name="four" unicode="4" horiz-adv-x="776" 
d="M453 0v195h-423v129l387 487h176v-485h133v-131h-133v-195h-140zM176 326h277v350z" />
    <glyph glyph-name="five" unicode="5" horiz-adv-x="735" 
d="M345 -12c-110 0 -214 31 -299 86l65 125c57 -45 142 -73 219 -73c98 0 194 38 194 139s-81 141 -189 141c-75 0 -171 -22 -239 -47l56 452h476v-130h-364l-19 -160c39 9 81 14 121 14c155 0 304 -67 304 -272c0 -178 -151 -275 -325 -275z" />
    <glyph glyph-name="six" unicode="6" horiz-adv-x="714" 
d="M357 -12c-166 0 -312 123 -312 297c0 106 40 187 108 278l186 248h180l-183 -230c17 3 34 4 51 4c165 0 282 -143 282 -300c0 -170 -144 -297 -312 -297zM357 125c100 0 167 74 167 165c0 90 -67 164 -167 164s-166 -74 -166 -164c0 -91 65 -165 166 -165z" />
    <glyph glyph-name="seven" unicode="7" horiz-adv-x="671" 
d="M63 0l412 681h-445v130h601v-130l-400 -681h-168z" />
    <glyph glyph-name="eight" unicode="8" horiz-adv-x="767" 
d="M383 826c152 0 294 -73 294 -219c0 -83 -48 -154 -102 -176c58 -27 127 -94 127 -205c0 -168 -165 -238 -319 -238c-153 0 -318 70 -318 238c0 111 68 178 127 205c-54 22 -102 93 -102 176c0 146 142 219 293 219zM383 125c100 0 172 44 172 120c0 78 -69 123 -172 123
c-102 0 -171 -45 -171 -123c0 -76 72 -120 171 -120zM383 487c96 0 149 46 149 102c0 64 -64 100 -149 100c-84 0 -149 -36 -149 -100c0 -56 54 -102 149 -102z" />
    <glyph glyph-name="nine" unicode="9" horiz-adv-x="714" 
d="M357 826c166 0 312 -123 312 -297c0 -106 -40 -187 -108 -278l-186 -251h-180l183 233c-17 -3 -34 -4 -51 -4c-165 0 -282 143 -282 300c0 170 144 297 312 297zM357 689c-100 0 -167 -74 -167 -165c0 -90 67 -164 167 -164s166 74 166 164c0 91 -65 165 -166 165z" />
    <glyph glyph-name="onequarter" unicode="&#xbc;" horiz-adv-x="987" 
d="M835 151h52v-71h-52v-80h-90v80h-215v39l218 342h87v-310zM745 151v180h-2l-103 -180h105zM643 780l68 -34l-404 -777l-69 35zM164 678h-64v76h160v-452h-96v376z" />
    <glyph glyph-name="onehalf" unicode="&#xbd;" horiz-adv-x="987" 
d="M597 780l68 -34l-404 -777l-69 35zM164 678h-64v76h160v-452h-96v376zM727 77h160v-77h-330l125 145c34 40 106 118 106 169c0 42 -22 74 -63 74c-43 0 -62 -44 -60 -78h-101c6 87 60 154 161 154c89 0 159 -63 159 -145c0 -67 -40 -117 -85 -165z" />
    <glyph glyph-name="twothirds" unicode="&#x2154;" horiz-adv-x="1028" 
d="M699 780l68 -34l-404 -777l-69 35zM712 336h-91c8 78 62 130 150 130c84 0 141 -49 141 -127c0 -35 -14 -74 -47 -95c45 -18 63 -69 63 -110c0 -89 -69 -144 -163 -144c-90 0 -157 62 -162 143h96c2 -36 28 -66 70 -66c43 0 66 37 66 72c0 36 -26 75 -69 72l-18 -1v63h11
c40 0 62 25 62 63c0 30 -20 57 -56 57c-34 0 -52 -29 -53 -57zM270 423h160v-77h-330l125 145c34 40 106 118 106 169c0 42 -22 74 -63 74c-43 0 -62 -44 -60 -78h-101c6 87 60 154 161 154c89 0 159 -63 159 -145c0 -67 -40 -117 -85 -165z" />
    <glyph glyph-name="threequarters" unicode="&#xbe;" horiz-adv-x="987" 
d="M835 151h52v-71h-52v-80h-90v80h-215v39l218 342h87v-310zM745 151v180h-2l-103 -180h105zM695 780l68 -34l-404 -777l-69 35zM209 644h-91c8 78 62 130 150 130c84 0 141 -49 141 -127c0 -35 -14 -74 -47 -95c45 -18 63 -69 63 -110c0 -89 -69 -144 -163 -144
c-90 0 -157 62 -162 143h96c2 -36 28 -66 70 -66c43 0 66 37 66 72c0 36 -26 75 -69 72l-18 -1v63h11c40 0 62 25 62 63c0 30 -20 57 -56 57c-34 0 -52 -29 -53 -57z" />
    <glyph glyph-name="comma" unicode="," horiz-adv-x="301" 
d="M17 -166l95 303h148l-130 -303h-113z" />
    <glyph glyph-name="period" unicode="." horiz-adv-x="288" 
d="M144 -11c-47 0 -92 30 -92 79c0 50 45 82 92 82s92 -32 92 -82c0 -49 -45 -79 -92 -79z" />
    <glyph glyph-name="ellipsis" unicode="&#x2026;" horiz-adv-x="924" 
d="M144 -11c-47 0 -92 31 -92 80s45 82 92 82s92 -33 92 -82s-45 -80 -92 -80zM461 -11c-46 0 -91 31 -91 80s45 82 91 82c47 0 93 -33 93 -82s-46 -80 -93 -80zM779 -11c-46 0 -91 31 -91 80s45 82 91 82c47 0 93 -33 93 -82s-46 -80 -93 -80z" />
    <glyph glyph-name="exclam" unicode="!" horiz-adv-x="349" 
d="M174 -11c-47 0 -93 31 -93 80s46 82 93 82c46 0 91 -33 91 -82s-45 -80 -91 -80zM103 237v574h140v-574h-140z" />
    <glyph glyph-name="colon" unicode=":" horiz-adv-x="297" 
d="M149 -11c-47 0 -92 30 -92 79c0 50 45 82 92 82c46 0 91 -32 91 -82c0 -49 -45 -79 -91 -79zM149 380c-47 0 -92 31 -92 81c0 49 45 81 92 81c46 0 91 -32 91 -81c0 -50 -45 -81 -91 -81z" />
    <glyph glyph-name="hyphen" unicode="-" horiz-adv-x="408" 
d="M46 220v130h316v-130h-316z" />
    <glyph glyph-name="endash" unicode="&#x2013;" horiz-adv-x="592" 
d="M46 220v130h500v-130h-500z" />
    <glyph glyph-name="emdash" unicode="&#x2014;" horiz-adv-x="832" 
d="M46 220v130h740v-130h-740z" />
    <glyph glyph-name="underscore" unicode="_" horiz-adv-x="606" 
d="M46 -131v131h515v-131h-515z" />
    <glyph glyph-name="at" unicode="@" horiz-adv-x="939" 
d="M686 177c-60 0 -106 36 -115 105c-35 -65 -91 -102 -173 -102c-88 0 -168 62 -168 204c0 132 87 264 233 264c62 0 110 -34 131 -87c4 22 5 47 8 68h81l-33 -248c-2 -17 -3 -33 -3 -46c0 -52 15 -76 51 -76c59 0 109 74 109 202c0 189 -130 288 -317 288
c-211 0 -354 -152 -354 -352c0 -186 116 -323 310 -323c69 0 155 16 220 49l32 -80c-76 -35 -178 -55 -252 -55c-239 0 -401 175 -401 412c0 243 194 428 447 428c221 0 402 -114 402 -363c0 -185 -105 -288 -208 -288zM464 563c-85 0 -136 -85 -136 -181
c0 -79 34 -118 96 -118c89 0 139 87 139 187c0 71 -37 112 -99 112z" />
    <glyph glyph-name="slash" unicode="/" horiz-adv-x="617" 
d="M-30 -150l544 961h133l-541 -961h-136z" />
    <glyph glyph-name="backslash" unicode="\" horiz-adv-x="617" 
d="M103 811l544 -961h-136l-541 961h133z" />
    <glyph glyph-name="bar" unicode="|" horiz-adv-x="301" 
d="M81 -220v1031h140v-1031h-140z" />
    <glyph glyph-name="parenleft" unicode="(" horiz-adv-x="326" 
d="M45 297c0 210 80 409 150 514h138c-81 -133 -148 -319 -148 -514c0 -193 67 -384 148 -517h-138c-70 104 -150 308 -150 517z" />
    <glyph glyph-name="parenright" unicode=")" horiz-adv-x="325" 
d="M280 297c0 -209 -79 -413 -148 -517h-139c81 133 149 324 149 517c0 194 -68 381 -149 514h139c69 -105 148 -304 148 -514z" />
    <glyph glyph-name="bracketleft" unicode="[" horiz-adv-x="336" 
d="M81 -220v1031h240v-101h-100v-829h100v-101h-240z" />
    <glyph glyph-name="bracketright" unicode="]" horiz-adv-x="336" 
d="M255 811v-1031h-240v101h100v829h-100v101h240z" />
    <glyph glyph-name="braceleft" unicode="{" horiz-adv-x="365" 
d="M291 -220c-138 0 -178 35 -178 169v170c0 70 -11 124 -83 126v102c72 2 83 56 83 127v168c0 134 40 169 178 169h59v-101h-32c-61 0 -65 -13 -65 -74v-176c0 -113 -40 -147 -96 -162v-2c56 -16 96 -51 96 -163v-178c0 -61 4 -74 65 -74h32v-101h-59z" />
    <glyph glyph-name="braceright" unicode="}" horiz-adv-x="365" 
d="M73 -220h-58v101h23c62 0 73 13 73 74v178c0 112 40 147 96 163v2c-56 15 -96 49 -96 162v176c0 61 -11 74 -73 74h-23v101h58c138 0 178 -35 178 -169v-168c0 -71 11 -125 84 -127v-102c-73 -2 -84 -56 -84 -126v-170c0 -134 -40 -169 -178 -169z" />
    <glyph glyph-name="asciicircum" unicode="^" horiz-adv-x="556" 
d="M343 811l207 -402h-123l-149 304l-150 -304h-122l206 402h131z" />
    <glyph glyph-name="asciitilde" unicode="~" horiz-adv-x="620" 
d="M414 307c37 0 59 18 65 78h101c-1 -130 -48 -203 -143 -203c-90 0 -163 78 -230 78c-37 0 -60 -18 -66 -78h-100c0 129 48 203 142 203c98 0 173 -78 231 -78z" />
    <glyph glyph-name="degree" unicode="&#xb0;" horiz-adv-x="439" 
d="M30 634c0 106 84 192 189 192c106 0 190 -86 190 -192c0 -105 -84 -189 -190 -189c-105 0 -189 84 -189 189zM116 634c0 -62 42 -110 103 -110c62 0 105 48 105 110c0 64 -43 112 -105 112c-61 0 -103 -48 -103 -112z" />
    <glyph glyph-name="section" unicode="&#xa7;" horiz-adv-x="730" 
d="M112 645c0 117 112 180 244 180c91 0 175 -22 235 -57l-50 -117c-46 31 -115 55 -181 55c-67 0 -113 -21 -113 -59c0 -31 24 -56 90 -90l162 -82c112 -56 186 -111 186 -204c0 -84 -58 -144 -127 -179c36 -35 56 -75 56 -126c0 -124 -110 -194 -253 -194
c-91 0 -174 23 -235 57l51 116c54 -36 118 -53 181 -53c66 0 120 24 120 75c0 36 -32 68 -115 111l-142 71c-110 55 -176 115 -176 208c0 71 56 132 125 168c-37 34 -58 74 -58 120zM430 176c12 -7 24 -12 36 -19c46 25 79 57 79 98c0 48 -26 80 -107 121l-174 86
c-46 -23 -80 -53 -80 -94c0 -50 27 -80 98 -117z" />
    <glyph glyph-name="bullet" unicode="&#x2022;" horiz-adv-x="433" 
d="M217 189c-108 0 -189 85 -189 188c0 104 81 189 189 189s188 -85 188 -189c0 -103 -80 -188 -188 -188z" />
    <glyph glyph-name="paragraph" unicode="&#xb6;" horiz-adv-x="646" 
d="M33 596c0 134 107 215 274 215h258v-894h-95v804h-122v-804h-95v467c-103 8 -220 71 -220 212z" />
    <glyph glyph-name="numbersign" unicode="#" horiz-adv-x="826" 
d="M89 607h157l28 204h107l-28 -204h174l28 204h106l-28 -204h163l-19 -107h-158l-25 -183h162l-19 -107h-157l-28 -210h-107l28 210h-174l-28 -210h-106l28 210h-163l19 107h158l25 183h-162zM339 500l-25 -183h174l25 183h-174z" />
    <glyph glyph-name="percent" unicode="%" horiz-adv-x="1077" 
d="M241 346c-127 0 -191 94 -191 240s64 240 191 240c128 0 192 -94 192 -240s-64 -240 -192 -240zM241 460c47 0 77 36 77 126s-30 127 -77 127s-77 -37 -77 -127s30 -126 77 -126zM184 1h143l567 810h-143zM835 -13c-127 0 -191 94 -191 240s64 240 191 240
c128 0 192 -94 192 -240s-64 -240 -192 -240zM835 101c47 0 77 36 77 126s-30 127 -77 127s-77 -37 -77 -127s30 -126 77 -126z" />
    <glyph glyph-name="perthousand" unicode="&#x2030;" horiz-adv-x="1517" 
d="M241 346c-127 0 -191 94 -191 240s64 240 191 240c128 0 192 -94 192 -240s-64 -240 -192 -240zM241 460c47 0 77 36 77 126s-30 127 -77 127s-77 -37 -77 -127s30 -126 77 -126zM184 1h143l567 810h-143zM835 -13c-127 0 -191 94 -191 240s64 240 191 240
c128 0 192 -94 192 -240s-64 -240 -192 -240zM835 101c47 0 77 36 77 126s-30 127 -77 127s-77 -37 -77 -127s30 -126 77 -126zM1275 -13c-127 0 -191 94 -191 240s64 240 191 240c128 0 192 -94 192 -240s-64 -240 -192 -240zM1275 101c47 0 77 36 77 126s-30 127 -77 127
s-77 -37 -77 -127s30 -126 77 -126z" />
    <glyph glyph-name="dagger" unicode="&#x2020;" horiz-adv-x="664" 
d="M262 0v464h-221v130h221v217h140v-217h221v-130h-221v-464h-140z" />
    <glyph glyph-name="daggerdbl" unicode="&#x2021;" horiz-adv-x="702" 
d="M281 319v179h-221v131h221v182h140v-182h221v-131h-221v-179h221v-131h-221v-188h-140v188h-221v131h221z" />
    <glyph glyph-name="quotesingle" unicode="'" horiz-adv-x="244" 
d="M74 491l-27 320h150l-26 -320h-97z" />
    <glyph glyph-name="quotedbl" unicode="&#x22;" horiz-adv-x="483" 
d="M74 491l-27 320h150l-26 -320h-97zM313 491l-27 320h149l-26 -320h-96z" />
    <glyph glyph-name="quotedblleft" unicode="&#x201c;" horiz-adv-x="543" 
d="M507 811l-95 -303h-149l131 303h113zM265 811l-95 -303h-148l131 303h112z" />
    <glyph glyph-name="quotedblright" unicode="&#x201d;" horiz-adv-x="543" 
d="M22 508l95 303h148l-131 -303h-112zM263 508l95 303h149l-131 -303h-113z" />
    <glyph glyph-name="quoteleft" unicode="&#x2018;" horiz-adv-x="301" 
d="M265 811l-95 -303h-148l131 303h112z" />
    <glyph glyph-name="quoteright" unicode="&#x2019;" horiz-adv-x="301" 
d="M22 508l95 303h148l-131 -303h-112z" />
    <glyph glyph-name="quotesinglbase" unicode="&#x201a;" horiz-adv-x="301" 
d="M17 -166l95 303h148l-130 -303h-113z" />
    <glyph glyph-name="quotedblbase" unicode="&#x201e;" horiz-adv-x="548" 
d="M17 -166l95 303h148l-130 -303h-113zM263 -166l95 303h149l-131 -303h-113z" />
    <glyph glyph-name="guilsinglleft" unicode="&#x2039;" horiz-adv-x="355" 
d="M183 31l-157 257l156 256h147l-151 -255l150 -258h-145z" />
    <glyph glyph-name="guilsinglright" unicode="&#x203a;" horiz-adv-x="355" 
d="M329 288l-158 -257h-144l149 258l-150 255h146z" />
    <glyph glyph-name="guillemotleft" unicode="&#xab;" horiz-adv-x="610" 
d="M183 31l-157 257l156 256h147l-151 -255l150 -258h-145zM439 31l-156 257l156 256h145l-150 -255l149 -258h-144z" />
    <glyph glyph-name="guillemotright" unicode="&#xbb;" horiz-adv-x="610" 
d="M584 288l-157 -257h-145l150 258l-151 255h147zM327 288l-156 -257h-144l149 258l-150 255h145z" />
    <glyph glyph-name="asterisk" unicode="*" horiz-adv-x="478" 
d="M280 811v-140l139 48l29 -80l-139 -47l85 -117l-68 -51l-88 119l-83 -119l-71 49l84 118l-138 48l28 80l137 -48v140h85z" />
    <glyph glyph-name="periodcentered" unicode="&#xb7;" horiz-adv-x="315" 
d="M158 201c-46 0 -84 37 -84 83c0 45 38 82 84 82c45 0 82 -37 82 -82c0 -46 -37 -83 -82 -83z" />
    <glyph glyph-name="plus" unicode="+" horiz-adv-x="675" 
d="M267 0v220h-221v130h221v213h141v-213h220v-130h-220v-220h-141z" />
    <glyph glyph-name="minus" unicode="&#x2212;" horiz-adv-x="609" 
d="M46 220v130h517v-130h-517z" />
    <glyph glyph-name="plusminus" unicode="&#xb1;" horiz-adv-x="676" 
d="M268 138v162h-222v105h222v158h140v-158h221v-105h-221v-162h-140zM46 0v106h582v-106h-582z" />
    <glyph glyph-name="multiply" unicode="&#xd7;" horiz-adv-x="587" 
d="M103 10l-84 83l192 191l-192 192l84 83l190 -192l192 192l83 -83l-191 -192l191 -191l-83 -83l-192 191z" />
    <glyph glyph-name="divide" unicode="&#xf7;" horiz-adv-x="609" 
d="M46 220v130h517v-130h-517zM302 -45c-46 0 -91 31 -91 80c0 50 45 82 91 82c47 0 92 -32 92 -82c0 -49 -45 -80 -92 -80zM302 446c-46 0 -91 31 -91 80s45 82 91 82c47 0 92 -33 92 -82s-45 -80 -92 -80z" />
    <glyph glyph-name="equal" unicode="=" horiz-adv-x="609" 
d="M46 349v130h517v-130h-517zM46 91v131h517v-131h-517z" />
    <glyph glyph-name="notequal" unicode="&#x2260;" horiz-adv-x="609" 
d="M46 349v130h319l76 127h122l-76 -127h76v-130h-153l-76 -127h229v-131h-307l-87 -147h-124l88 147h-87v131h165l76 127h-241z" />
    <glyph glyph-name="approxequal" unicode="&#x2248;" horiz-adv-x="644" 
d="M437 416c38 0 61 21 67 77h95c-7 -118 -54 -186 -146 -186c-93 0 -177 78 -246 78c-37 0 -61 -20 -66 -77h-95c6 118 54 186 147 186c99 0 186 -78 244 -78zM437 172c38 0 61 22 67 78h95c-7 -119 -54 -186 -146 -186c-93 0 -177 78 -246 78c-37 0 -61 -22 -66 -77h-95
c6 117 54 186 147 186c99 0 186 -79 244 -79z" />
    <glyph glyph-name="greater" unicode="&#x3e;" horiz-adv-x="677" 
d="M46 576l585 -228v-134l-585 -228v142l435 152l-435 156v140z" />
    <glyph glyph-name="greaterequal" unicode="&#x2265;" horiz-adv-x="690" 
d="M54 251l438 111l-438 111v117l582 -156v-143l-582 -158v118zM636 106v-106h-582v106h582z" />
    <glyph glyph-name="less" unicode="&#x3c;" horiz-adv-x="677" 
d="M46 348l585 228v-133l-435 -163l435 -160v-134l-585 228v134z" />
    <glyph glyph-name="lessequal" unicode="&#x2264;" horiz-adv-x="690" 
d="M198 362l438 -111v-118l-582 158v143l582 156v-117zM54 0v106h582v-106h-582z" />
    <glyph glyph-name="Euro" unicode="&#x20ac;" horiz-adv-x="885" 
d="M54 579h137c58 148 194 245 386 245c101 0 199 -27 268 -69l-55 -127c-58 36 -128 61 -208 61c-92 0 -176 -36 -226 -110h301l-54 -107h-289c-4 -21 -5 -42 -5 -65c0 -10 0 -19 1 -28h247l-54 -107h-168c44 -101 141 -149 247 -149c80 0 150 25 208 61l55 -127
c-69 -42 -167 -69 -268 -69c-207 0 -350 114 -398 284h-178l53 107h108c-1 9 -1 18 -1 28c0 22 1 44 4 65h-164z" />
    <glyph glyph-name="dollar" unicode="$" horiz-adv-x="720" 
d="M302 -118v108c-99 6 -197 33 -257 70l57 127c57 -36 154 -63 238 -63c98 0 173 32 173 107c0 68 -61 96 -154 119l-67 17c-147 36 -223 122 -223 242c0 116 91 195 233 213v107h117v-106c85 -9 171 -36 228 -70l-57 -127c-59 38 -150 63 -228 63c-72 0 -144 -25 -144 -83
c0 -53 39 -81 129 -105l68 -17c137 -34 250 -109 250 -254c0 -134 -101 -216 -246 -236v-112h-117z" />
    <glyph glyph-name="yen" unicode="&#xa5;" horiz-adv-x="750" 
d="M102 255v96h180l-267 460h150l210 -372l210 372h150l-266 -460h178v-96h-201v-70h201v-105h-201v-80h-141v80h-203v105h203v70h-203z" />
    <glyph glyph-name="sterling" unicode="&#xa3;" horiz-adv-x="715" 
d="M405 826c88 0 186 -23 254 -60l-56 -124c-46 28 -117 47 -183 47c-76 0 -170 -18 -170 -96c0 -52 41 -96 76 -146h226v-130h-180c-5 -67 -66 -130 -128 -171l1 -2c35 10 62 14 87 14c69 0 117 -35 186 -35c40 0 80 7 124 28l43 -127c-52 -22 -109 -36 -176 -36
c-84 0 -148 43 -234 43c-43 0 -99 -8 -166 -42l-52 125c81 40 166 96 166 202v1h-173v130h122c-33 50 -70 99 -70 168c0 150 162 211 303 211z" />
    <glyph glyph-name="florin" unicode="&#x192;" horiz-adv-x="578" 
d="M381 504h107l-10 -72h-108l-47 -291c-28 -172 -67 -307 -271 -307l-56 4l20 126l33 -2c43 0 76 10 98 49c19 34 32 111 38 151l43 270h-60l10 72h62l19 115c20 119 68 212 203 212c31 0 61 -6 88 -21l-20 -121c-19 11 -37 17 -59 17c-59 0 -69 -76 -76 -119z" />
    <glyph glyph-name="cent" unicode="&#xa2;" horiz-adv-x="558" 
d="M310 -109v98c-161 11 -277 133 -277 296c0 161 116 285 277 297v96h47v-96c67 -3 121 -19 173 -45l-56 -126c-33 19 -72 32 -117 34v-320c45 3 84 15 117 35l56 -127c-52 -26 -106 -41 -173 -44v-98h-47zM180 285c0 -86 50 -146 130 -158v316c-80 -12 -130 -73 -130 -158
z" />
    <glyph glyph-name="copyright" unicode="&#xa9;" horiz-adv-x="929" 
d="M45 405c0 249 186 422 420 422c231 0 419 -173 419 -422s-188 -419 -419 -419c-234 0 -420 170 -420 419zM127 405c0 -205 146 -346 338 -346c193 0 337 141 337 346c0 207 -144 347 -337 347c-192 0 -338 -140 -338 -347zM235 409c0 142 98 238 241 238
c61 0 117 -17 158 -43l-35 -87c-35 23 -75 36 -121 36c-77 0 -137 -54 -137 -144c0 -89 60 -145 137 -145c46 0 86 14 120 35l36 -85c-41 -27 -97 -43 -158 -43c-143 0 -241 97 -241 238z" />
    <glyph glyph-name="registered" unicode="&#xae;" horiz-adv-x="929" 
d="M45 405c0 249 186 422 420 422c231 0 419 -173 419 -422s-188 -419 -419 -419c-234 0 -420 170 -420 419zM127 405c0 -205 146 -346 338 -346c193 0 337 141 337 346c0 207 -144 347 -337 347c-192 0 -338 -140 -338 -347zM460 366h-65v-168h-96v445h155
c114 0 201 -27 201 -140c0 -65 -34 -102 -84 -121l105 -184h-108l-94 168h-14zM557 503c0 38 -29 56 -78 56h-84v-109h85c54 0 77 18 77 53z" />
    <glyph glyph-name="trademark" unicode="&#x2122;" horiz-adv-x="1016" 
d="M166 362v367h-144v82h376v-82h-144v-367h-88zM749 362h-116l-100 376v-376h-88v449h150l96 -367l95 367h149v-449h-86v376z" />
    <glyph glyph-name="Eth" unicode="&#xd0;" horiz-adv-x="857" 
d="M127 0v350h-120v134h120v327h214c270 0 471 -136 471 -401c0 -262 -193 -410 -464 -410h-221zM272 134h67c196 0 321 73 321 276c0 189 -127 267 -316 267h-72v-193h189v-134h-189v-216z" />
    <glyph glyph-name="eth" unicode="&#xf0;" horiz-adv-x="714" 
d="M216 615l-33 52l89 46l-77 98h180l24 -33l102 53l33 -52l-98 -50l125 -166c68 -91 108 -172 108 -278c0 -174 -146 -297 -312 -297c-168 0 -312 127 -312 297c0 157 117 300 282 300c17 0 34 -1 51 -4l-67 83zM357 125c101 0 166 74 166 165c0 90 -66 164 -166 164
s-167 -74 -167 -164c0 -91 67 -165 167 -165z" />
    <glyph glyph-name="Lslash" unicode="&#x141;" horiz-adv-x="687" 
d="M30 248l-50 120l169 70v373h145v-313l148 62l50 -120l-198 -83v-223h373v-134h-518v297z" />
    <glyph glyph-name="lslash" unicode="&#x142;" horiz-adv-x="432" 
d="M34 248l-54 120l166 76v367h140v-303l112 52l54 -120l-166 -76v-364h-140v299z" />
    <glyph glyph-name="Scaron" unicode="&#x160;" horiz-adv-x="720" 
d="M102 187c57 -36 154 -63 238 -63c98 0 173 32 173 107c0 68 -61 91 -154 114l-67 17c-147 36 -223 122 -223 242c0 132 118 222 294 222c101 0 215 -31 284 -73l-57 -127c-59 38 -150 63 -228 63c-77 0 -144 -30 -144 -88c0 -53 39 -82 129 -105l68 -17
c137 -34 250 -104 250 -249c0 -156 -137 -242 -321 -242c-113 0 -230 30 -299 72zM280 845l-140 140h110l95 -85l97 85h111l-142 -140h-131z" />
    <glyph glyph-name="scaron" unicode="&#x161;" horiz-adv-x="599" 
d="M296 125c57 0 105 12 105 44c0 29 -21 43 -93 57l-45 8c-127 24 -204 78 -204 175c0 106 89 174 235 174c89 0 177 -18 239 -52l-51 -130c-51 28 -132 45 -196 45c-59 0 -88 -14 -88 -37c0 -25 22 -40 93 -54l44 -8c154 -29 214 -84 214 -186c0 -98 -85 -173 -257 -173
c-91 0 -188 22 -252 58l53 136c51 -33 128 -57 203 -57zM217 671l-140 140h110l95 -85l97 85h111l-142 -140h-131z" />
    <glyph glyph-name="Yacute" unicode="&#xdd;" horiz-adv-x="750" 
d="M375 446l193 365h167l-287 -507v-304h-145v304l-288 507h167zM550 985l-143 -140h-114l118 140h139z" />
    <glyph glyph-name="yacute" unicode="&#xfd;" horiz-adv-x="643" 
d="M107 -200l-30 146c55 -24 143 -42 198 -42c86 0 147 28 147 94v12c-38 -8 -76 -12 -112 -12c-143 0 -245 46 -245 231v335h141v-295c0 -103 33 -134 111 -134c30 0 64 3 105 15v414h140v-521c0 -199 -70 -268 -293 -268c-44 0 -117 11 -162 25zM481 811l-143 -140h-114
l118 140h139z" />
    <glyph glyph-name="Thorn" unicode="&#xde;" horiz-adv-x="741" 
d="M404 152h-160v-152h-144v811h144v-151h160c207 0 297 -121 297 -248c0 -135 -96 -260 -297 -260zM373 526h-129v-240h129c105 0 176 29 176 123c0 80 -57 117 -176 117z" />
    <glyph glyph-name="thorn" unicode="&#xfe;" horiz-adv-x="669" 
d="M221 -4v-216h-140v1031h140v-234c28 3 59 6 86 6c208 0 329 -129 329 -297s-125 -298 -318 -298c-25 0 -58 2 -97 8zM221 434v-298c34 -8 62 -11 88 -11c110 0 181 53 181 161c0 109 -71 160 -181 160c-28 0 -57 -5 -88 -12z" />
    <glyph glyph-name="Zcaron" unicode="&#x17d;" horiz-adv-x="754" 
d="M90 677v134h588v-133l-449 -544h460v-134h-634v133l450 544h-415zM321 845l-140 140h110l95 -85l97 85h111l-142 -140h-131z" />
    <glyph glyph-name="zcaron" unicode="&#x17e;" horiz-adv-x="583" 
d="M64 433v130h459v-129l-305 -304h315v-130h-493v130l311 303h-287zM231 671l-140 140h110l95 -85l97 85h111l-142 -140h-131z" />
    <glyph glyph-name="onesuperior" unicode="&#xb9;" horiz-adv-x="230" 
d="M124 480v264l-74 -17v51l130 29v-327h-56z" />
    <glyph glyph-name="threesuperior" unicode="&#xb3;" horiz-adv-x="343" 
d="M163 474c-41 0 -84 13 -113 35l26 49c22 -18 50 -29 81 -29c41 0 77 15 77 47c0 36 -34 44 -83 44h-9v53h8c52 0 76 9 76 39c0 28 -29 43 -67 43c-31 0 -57 -11 -80 -29l-26 49c29 21 71 35 111 35c70 0 120 -32 120 -88c0 -36 -21 -64 -46 -74c31 -9 55 -34 55 -78
c0 -63 -55 -96 -130 -96z" />
    <glyph glyph-name="twosuperior" unicode="&#xb2;" horiz-adv-x="336" 
d="M158 755c-31 0 -56 -11 -78 -29l-26 49c28 22 68 35 110 35c64 0 117 -30 117 -93c0 -65 -52 -116 -147 -185h152v-52h-236v50c91 67 172 125 172 176c0 34 -30 49 -64 49z" />
    <glyph glyph-name="brokenbar" unicode="&#xa6;" horiz-adv-x="301" 
d="M81 411v400h140v-400h-140zM81 -220v400h140v-400h-140z" />
    <glyph glyph-name="ampersand" unicode="&#x26;" horiz-adv-x="879" 
d="M333 -12c-183 0 -302 95 -302 246c0 111 64 191 207 241c-50 58 -84 112 -84 176c0 104 98 175 240 175c157 0 242 -78 242 -193c0 -72 -48 -160 -170 -210l136 -147c32 52 54 111 65 171h146c-16 -94 -58 -190 -119 -269l165 -178h-177l-80 84
c-74 -59 -166 -96 -269 -96zM337 118c68 0 128 23 177 60l-191 204c-108 -32 -145 -77 -145 -139c0 -78 69 -125 159 -125zM300 643c0 -44 37 -81 81 -128c85 28 117 71 117 114c0 52 -47 79 -99 79s-99 -20 -99 -65z" />
    <glyph glyph-name="semicolon" unicode=";" horiz-adv-x="315" 
d="M17 -166l95 303h148l-130 -303h-113zM181 380c-47 0 -92 31 -92 81c0 49 45 81 92 81c46 0 92 -32 92 -81c0 -50 -46 -81 -92 -81z" />
    <glyph glyph-name="question" unicode="?" horiz-adv-x="568" 
d="M229 -12c48 0 95 32 95 83s-47 84 -95 84s-94 -33 -94 -84s46 -83 94 -83zM226 689c-62 0 -126 -17 -181 -41l18 145c45 18 99 33 177 33c161 0 286 -97 286 -249c0 -141 -102 -221 -222 -249v-91h-140v197h12c108 0 203 33 203 130c0 78 -79 125 -153 125z" />
    <glyph glyph-name="A" unicode="A" horiz-adv-x="795" 
d="M485 811l300 -811h-151l-69 191h-336l-68 -191h-151l300 811h175zM397 663l-120 -337h240z" />
    <glyph glyph-name="B" unicode="B" horiz-adv-x="764" 
d="M672 607c0 -68 -36 -137 -113 -171c109 -33 155 -116 155 -198c0 -170 -147 -238 -295 -238h-319v811h279c202 0 293 -90 293 -204zM565 241c0 85 -64 108 -170 108h-151v-215h155c113 0 166 33 166 107zM523 582c0 56 -43 95 -153 95h-126v-193h126c106 0 153 32 153 98
z" />
    <glyph glyph-name="C" unicode="C" horiz-adv-x="774" 
d="M471 689c-147 0 -273 -90 -273 -282s126 -283 273 -283c80 0 149 24 207 61l56 -128c-69 -42 -167 -69 -269 -69c-257 0 -420 179 -420 419s163 419 420 419c102 0 200 -28 269 -70l-56 -127c-58 36 -127 60 -207 60z" />
    <glyph glyph-name="D" unicode="D" horiz-adv-x="830" 
d="M244 134h67c197 0 322 73 322 276c0 189 -128 267 -317 267h-72v-543zM100 0v811h214c270 0 471 -136 471 -401c0 -262 -193 -410 -465 -410h-220z" />
    <glyph glyph-name="E" unicode="E" horiz-adv-x="685" 
d="M100 0v811h518v-134h-374v-193h339v-136h-339v-214h376v-134h-520z" />
    <glyph glyph-name="F" unicode="F" horiz-adv-x="647" 
d="M244 0h-144v811h517v-134h-373v-193h337v-136h-337v-348z" />
    <glyph glyph-name="G" unicode="G" horiz-adv-x="881" 
d="M465 -12c-257 0 -420 179 -420 419s163 419 420 419c116 0 227 -28 296 -70l-55 -127c-58 36 -141 60 -235 60c-147 0 -273 -90 -273 -282s126 -283 273 -283c57 0 117 13 166 35v146h-181v136h325v-379c-77 -47 -212 -74 -316 -74z" />
    <glyph glyph-name="H" unicode="H" horiz-adv-x="878" 
d="M244 0h-144v811h144v-327h389v327h145v-811h-145v348h-389v-348z" />
    <glyph glyph-name="I" unicode="I" horiz-adv-x="344" 
d="M244 0h-144v811h144v-811z" />
    <glyph glyph-name="J" unicode="J" horiz-adv-x="518" 
d="M0 34l53 123c35 -20 76 -33 124 -33c61 0 97 32 97 117v570h144v-576c0 -176 -82 -247 -214 -247c-89 0 -162 22 -204 46z" />
    <glyph glyph-name="K" unicode="K" horiz-adv-x="766" 
d="M244 0h-144v811h144v-405l316 405h176l-326 -402l346 -409h-181l-331 404v-404z" />
    <glyph glyph-name="L" unicode="L" horiz-adv-x="638" 
d="M245 811v-677h373v-134h-518v811h145z" />
    <glyph glyph-name="M" unicode="M" horiz-adv-x="1042" 
d="M611 0h-179l-188 692v-692h-144v811h244l177 -683l179 683h242v-811h-144v692z" />
    <glyph glyph-name="N" unicode="N" horiz-adv-x="859" 
d="M538 0l-296 676v-676h-142v811h222l296 -676v676h141v-811h-221z" />
    <glyph glyph-name="O" unicode="O" horiz-adv-x="932" 
d="M887 407c0 -237 -174 -419 -421 -419s-421 182 -421 419c0 236 174 419 421 419s421 -183 421 -419zM735 407c0 170 -115 282 -269 282c-153 0 -268 -112 -268 -282s115 -282 268 -282c154 0 269 112 269 282z" />
    <glyph glyph-name="P" unicode="P" horiz-adv-x="721" 
d="M404 303h-160v-303h-144v811h304c207 0 297 -121 297 -248c0 -135 -96 -260 -297 -260zM373 677h-129v-240h129c105 0 176 29 176 123c0 80 -57 117 -176 117z" />
    <glyph glyph-name="Q" unicode="Q" horiz-adv-x="932" 
d="M887 407c0 -129 -51 -241 -138 -317l127 -134l-70 -70l-139 148c-59 -30 -127 -46 -201 -46c-247 0 -421 182 -421 419c0 236 174 419 421 419s421 -183 421 -419zM735 407c0 170 -115 282 -269 282c-153 0 -268 -112 -268 -282s115 -283 268 -283c35 0 69 6 99 17
l-85 91l71 68l100 -106c52 50 84 123 84 213z" />
    <glyph glyph-name="R" unicode="R" horiz-adv-x="782" 
d="M585 0l-198 320h-143v-320h-144v811h304c211 0 296 -120 296 -245c0 -93 -44 -186 -165 -226l212 -340h-162zM372 677h-128v-232h128c106 0 176 24 176 118c0 81 -57 114 -176 114z" />
    <glyph glyph-name="S" unicode="S" horiz-adv-x="720" 
d="M102 187c57 -36 154 -63 238 -63c98 0 173 32 173 107c0 68 -61 91 -154 114l-67 17c-147 36 -223 122 -223 242c0 132 118 222 294 222c101 0 215 -31 284 -73l-57 -127c-59 38 -150 63 -228 63c-77 0 -144 -30 -144 -88c0 -53 39 -82 129 -105l68 -17
c137 -34 250 -104 250 -249c0 -156 -137 -242 -321 -242c-113 0 -230 30 -299 72z" />
    <glyph glyph-name="T" unicode="T" horiz-adv-x="725" 
d="M290 0v677h-270v134h685v-134h-270v-677h-145z" />
    <glyph glyph-name="U" unicode="U" horiz-adv-x="876" 
d="M438 -12c-253 0 -348 145 -348 330v493h144v-460c0 -149 53 -227 204 -227c150 0 204 78 204 227v460h144v-493c0 -185 -95 -330 -348 -330z" />
    <glyph glyph-name="V" unicode="V" horiz-adv-x="781" 
d="M296 0l-276 811h159l211 -663l212 663h159l-276 -811h-189z" />
    <glyph glyph-name="W" unicode="W" horiz-adv-x="1072" 
d="M636 811l114 -642l132 642h160l-187 -811h-201l-118 674l-118 -674h-201l-187 811h159l132 -642l114 642h201z" />
    <glyph glyph-name="X" unicode="X" horiz-adv-x="803" 
d="M761 811l-279 -389l301 -422h-167l-218 305l-218 -305h-160l298 417l-281 394h168l197 -277l198 277h161z" />
    <glyph glyph-name="Y" unicode="Y" horiz-adv-x="750" 
d="M375 446l193 365h167l-287 -507v-304h-145v304l-288 507h167z" />
    <glyph glyph-name="Z" unicode="Z" horiz-adv-x="754" 
d="M90 677v134h588v-133l-449 -544h460v-134h-634v133l450 544h-415z" />
    <glyph glyph-name="grave" unicode="`" horiz-adv-x="287" 
d="M158 671l-143 140h140l117 -140h-114z" />
    <glyph glyph-name="a" unicode="a" horiz-adv-x="632" 
d="M422 130v114c-26 7 -64 12 -95 12c-71 0 -131 -18 -131 -72c0 -52 54 -70 123 -70c35 0 73 6 103 16zM317 -12c-141 0 -267 49 -267 187c0 126 109 191 262 191c30 0 68 -2 110 -8v8c0 64 -53 82 -130 82c-58 0 -143 -23 -198 -50l18 143c45 22 121 42 199 42
c145 0 251 -59 251 -223v-328c-71 -28 -162 -44 -245 -44z" />
    <glyph glyph-name="b" unicode="b" horiz-adv-x="668" 
d="M221 434v-298c31 -7 60 -11 87 -11c110 0 181 50 181 159s-71 162 -181 162c-26 0 -54 -3 -87 -12zM221 811v-236c38 5 71 8 97 8c192 0 317 -131 317 -299s-121 -296 -328 -296c-81 0 -158 10 -226 29v794h140z" />
    <glyph glyph-name="c" unicode="c" horiz-adv-x="558" 
d="M33 285c0 170 128 298 302 298c77 0 138 -17 195 -46l-56 -126c-37 21 -81 35 -133 35c-97 0 -161 -65 -161 -161s64 -160 161 -160c52 0 96 13 133 35l56 -127c-57 -29 -118 -45 -195 -45c-174 0 -302 126 -302 297z" />
    <glyph glyph-name="d" unicode="d" horiz-adv-x="669" 
d="M180 284c0 -109 71 -159 181 -159c27 0 56 4 87 11v298c-34 9 -62 12 -87 12c-110 0 -181 -53 -181 -162zM448 575v236h140v-794c-69 -19 -145 -29 -226 -29c-208 0 -329 128 -329 296s126 299 318 299c25 0 59 -3 97 -8z" />
    <glyph glyph-name="e" unicode="e" horiz-adv-x="651" 
d="M346 125h15c59 0 135 22 165 50l62 -125c-60 -33 -135 -62 -246 -62c-178 0 -309 128 -309 297c0 174 133 298 299 298c173 0 298 -127 291 -344h-446c18 -77 82 -114 169 -114zM330 459c-75 0 -131 -44 -148 -104h294c-15 69 -70 104 -146 104z" />
    <glyph glyph-name="f" unicode="f" horiz-adv-x="509" 
d="M25 433v130h106v54c0 135 68 194 224 194h134v-130h-133c-72 0 -85 -29 -85 -90v-28h214v-130h-214v-433h-140v433h-106z" />
    <glyph glyph-name="g" unicode="g" horiz-adv-x="669" 
d="M448 150v284c-31 7 -60 12 -87 12c-110 0 -181 -48 -181 -153c0 -104 71 -154 181 -154c25 0 53 3 87 11zM33 293c0 165 121 290 329 290c81 0 157 -10 226 -30v-510c0 -199 -70 -268 -293 -268c-44 0 -117 11 -162 25l-30 146c55 -24 143 -42 198 -42
c86 0 147 28 147 94v12c-38 -6 -72 -8 -97 -8c-192 0 -318 126 -318 291z" />
    <glyph glyph-name="h" unicode="h" horiz-adv-x="664" 
d="M221 811v-240c42 7 82 12 113 12c144 0 260 -46 260 -231v-352h-140v312c0 103 -43 134 -126 134c-30 0 -67 -4 -107 -11v-435h-140v811h140z" />
    <glyph glyph-name="i" unicode="i" horiz-adv-x="301" 
d="M81 0v563h140v-563h-140zM151 651c-44 0 -82 26 -82 75c0 44 35 74 82 74s81 -30 81 -74c0 -45 -33 -75 -81 -75z" />
    <glyph glyph-name="j" unicode="j" horiz-adv-x="322" 
d="M26 -225c-16 0 -35 2 -51 6l-16 130c25 -6 43 -8 62 -8c61 0 79 35 79 128v532h140v-515c0 -198 -45 -273 -214 -273zM170 651c-44 0 -82 26 -82 75c0 44 35 74 82 74s81 -30 81 -74c0 -45 -33 -75 -81 -75z" />
    <glyph glyph-name="k" unicode="k" horiz-adv-x="609" 
d="M221 0h-140v811h140v-525l209 277h166l-211 -279l224 -284h-168l-220 278v-278z" />
    <glyph glyph-name="l" unicode="l" horiz-adv-x="302" 
d="M221 0h-140v811h140v-811z" />
    <glyph glyph-name="m" unicode="m" horiz-adv-x="979" 
d="M769 0v313c0 103 -33 133 -111 133c-30 0 -72 -8 -106 -24c9 -17 15 -74 15 -105v-317h-140v313c0 103 -34 133 -114 133c-31 0 -55 -5 -92 -12v-434h-140v552c89 16 177 31 234 31c59 0 122 -11 159 -41c58 24 134 41 189 41c139 0 246 -46 246 -231v-352h-140z" />
    <glyph glyph-name="n" unicode="n" horiz-adv-x="664" 
d="M81 0v554c87 16 192 29 253 29c144 0 260 -46 260 -231v-352h-140v312c0 103 -43 134 -126 134c-30 0 -67 -4 -107 -11v-435h-140z" />
    <glyph glyph-name="o" unicode="o" horiz-adv-x="676" 
d="M338 -12c-173 0 -305 129 -305 297c0 167 132 298 305 298s305 -131 305 -298c0 -168 -132 -297 -305 -297zM338 125c98 0 158 71 158 160c0 88 -60 161 -158 161s-158 -73 -158 -161c0 -89 60 -160 158 -160z" />
    <glyph glyph-name="p" unicode="p" horiz-adv-x="669" 
d="M221 434v-298c34 -8 62 -11 88 -11c110 0 181 53 181 161c0 109 -71 160 -181 160c-28 0 -57 -5 -88 -12zM221 -4v-216h-140v773c69 20 146 30 226 30c208 0 329 -129 329 -297s-125 -298 -318 -298c-25 0 -58 2 -97 8z" />
    <glyph glyph-name="q" unicode="q" horiz-adv-x="669" 
d="M180 286c0 -108 71 -161 181 -161c25 0 53 3 87 11v298c-31 7 -60 12 -87 12c-110 0 -181 -51 -181 -160zM448 -220v216c-38 -6 -72 -8 -97 -8c-192 0 -318 130 -318 298s121 297 329 297c81 0 157 -10 226 -30v-773h-140z" />
    <glyph glyph-name="r" unicode="r" horiz-adv-x="438" 
d="M408 572v-134h-80c-22 0 -90 -4 -107 -10v-428h-140v548c70 14 163 24 221 24h106z" />
    <glyph glyph-name="s" unicode="s" horiz-adv-x="599" 
d="M296 125c57 0 105 12 105 44c0 29 -21 43 -93 57l-45 8c-127 24 -204 78 -204 175c0 106 89 174 235 174c89 0 177 -18 239 -52l-51 -130c-51 28 -132 45 -196 45c-59 0 -88 -14 -88 -37c0 -25 22 -40 93 -54l44 -8c154 -29 214 -84 214 -186c0 -98 -85 -173 -257 -173
c-91 0 -188 22 -252 58l53 136c51 -33 128 -57 203 -57z" />
    <glyph glyph-name="t" unicode="t" horiz-adv-x="529" 
d="M20 433v130h106v206h140v-206h214v-130h-214v-204c0 -76 26 -99 100 -99h118v-130h-133c-156 0 -225 44 -225 179v254h-106z" />
    <glyph glyph-name="u" unicode="u" horiz-adv-x="642" 
d="M421 139v424h140v-534c-81 -27 -144 -41 -241 -41c-144 0 -255 56 -255 231v344h140v-304c0 -103 32 -134 111 -134c31 0 64 3 105 14z" />
    <glyph glyph-name="v" unicode="v" horiz-adv-x="600" 
d="M396 0h-192l-194 563h147l143 -430l143 430h147z" />
    <glyph glyph-name="w" unicode="w" horiz-adv-x="904" 
d="M739 0h-192l-95 436l-96 -436h-188l-153 563h153l103 -430l96 430h169l97 -430l102 430h154z" />
    <glyph glyph-name="x" unicode="x" horiz-adv-x="635" 
d="M613 563l-212 -274l223 -289h-165l-141 182l-142 -182h-165l224 290l-211 273h166l128 -166l128 166h167z" />
    <glyph glyph-name="y" unicode="y" horiz-adv-x="643" 
d="M107 -200l-30 146c55 -24 143 -42 198 -42c86 0 147 28 147 94v12c-38 -8 -76 -12 -112 -12c-143 0 -245 46 -245 231v335h141v-295c0 -103 33 -134 111 -134c30 0 64 3 105 15v414h140v-521c0 -199 -70 -268 -293 -268c-44 0 -117 11 -162 25z" />
    <glyph glyph-name="z" unicode="z" horiz-adv-x="583" 
d="M64 433v130h459v-129l-305 -304h315v-130h-493v130l311 303h-287z" />
    <glyph glyph-name="Adieresis" unicode="&#xc4;" horiz-adv-x="795" 
d="M485 811l300 -811h-151l-69 191h-336l-68 -191h-151l300 811h175zM397 663l-120 -337h240zM262 983c43 0 75 -27 75 -67c0 -22 -9 -40 -23 -51c-14 -12 -32 -18 -52 -18c-39 0 -74 25 -74 69c0 40 32 67 74 67zM531 983c43 0 74 -27 74 -67c0 -22 -8 -40 -22 -51
c-14 -12 -33 -18 -52 -18c-40 0 -74 25 -74 69c0 40 32 67 74 67z" />
    <glyph glyph-name="Aring" unicode="&#xc5;" horiz-adv-x="795" 
d="M485 811l300 -811h-151l-69 191h-336l-68 -191h-151l300 811h175zM397 663l-120 -337h240zM397 1046c58 0 105 -42 105 -100c0 -59 -46 -101 -105 -101s-107 42 -107 101c0 58 48 100 107 100zM397 1002c-31 0 -58 -23 -58 -56c0 -34 27 -56 58 -56c30 0 56 22 56 56
c0 33 -26 56 -56 56z" />
    <glyph glyph-name="Ccedilla" unicode="&#xc7;" horiz-adv-x="774" 
d="M310 -210l-4 57c15 -6 54 -16 81 -16c31 0 64 7 64 35c0 29 -33 36 -68 36c-25 0 -51 -4 -65 -7l59 101c-206 35 -332 199 -332 411c0 240 163 419 420 419c102 0 200 -28 269 -70l-56 -127c-58 36 -127 60 -207 60c-147 0 -273 -90 -273 -282s126 -283 273 -283
c80 0 149 24 207 61l56 -128c-69 -42 -167 -69 -269 -69c-12 0 -25 1 -36 2l-27 -46c44 3 111 -9 111 -74c0 -67 -58 -93 -122 -93c-31 0 -52 3 -81 13z" />
    <glyph glyph-name="Eacute" unicode="&#xc9;" horiz-adv-x="685" 
d="M100 0v811h518v-134h-374v-193h339v-136h-339v-214h376v-134h-520zM540 985l-143 -140h-114l118 140h139z" />
    <glyph glyph-name="Ntilde" unicode="&#xd1;" horiz-adv-x="859" 
d="M538 0l-296 676v-676h-142v811h222l296 -676v676h141v-811h-221zM501 926c33 0 45 19 52 54h68c-7 -86 -53 -130 -112 -130c-66 0 -101 54 -148 54c-33 0 -44 -19 -50 -54h-69c6 80 52 130 113 130c67 0 99 -54 146 -54z" />
    <glyph glyph-name="Odieresis" unicode="&#xd6;" horiz-adv-x="932" 
d="M887 407c0 -237 -174 -419 -421 -419s-421 182 -421 419c0 236 174 419 421 419s421 -183 421 -419zM735 407c0 170 -115 282 -269 282c-153 0 -268 -112 -268 -282s115 -282 268 -282c154 0 269 112 269 282zM330 983c43 0 75 -27 75 -67c0 -22 -9 -40 -23 -51
c-14 -12 -32 -18 -52 -18c-39 0 -74 25 -74 69c0 40 32 67 74 67zM599 983c43 0 74 -27 74 -67c0 -22 -8 -40 -22 -51c-14 -12 -33 -18 -52 -18c-40 0 -74 25 -74 69c0 40 32 67 74 67z" />
    <glyph glyph-name="Udieresis" unicode="&#xdc;" horiz-adv-x="876" 
d="M438 -12c-253 0 -348 145 -348 330v493h144v-460c0 -149 53 -227 204 -227c150 0 204 78 204 227v460h144v-493c0 -185 -95 -330 -348 -330zM304 983c43 0 75 -27 75 -67c0 -22 -9 -40 -23 -51c-14 -12 -32 -18 -52 -18c-39 0 -74 25 -74 69c0 40 32 67 74 67zM573 983
c43 0 74 -27 74 -67c0 -22 -8 -40 -22 -51c-14 -12 -33 -18 -52 -18c-40 0 -74 25 -74 69c0 40 32 67 74 67z" />
    <glyph glyph-name="aacute" unicode="&#xe1;" horiz-adv-x="632" 
d="M422 130v114c-26 7 -64 12 -95 12c-71 0 -131 -18 -131 -72c0 -52 54 -70 123 -70c35 0 73 6 103 16zM317 -12c-141 0 -267 49 -267 187c0 126 109 191 262 191c30 0 68 -2 110 -8v8c0 64 -53 82 -130 82c-58 0 -143 -23 -198 -50l18 143c45 22 121 42 199 42
c145 0 251 -59 251 -223v-328c-71 -28 -162 -44 -245 -44zM505 811l-143 -140h-114l118 140h139z" />
    <glyph glyph-name="agrave" unicode="&#xe0;" horiz-adv-x="632" 
d="M422 130v114c-26 7 -64 12 -95 12c-71 0 -131 -18 -131 -72c0 -52 54 -70 123 -70c35 0 73 6 103 16zM317 -12c-141 0 -267 49 -267 187c0 126 109 191 262 191c30 0 68 -2 110 -8v8c0 64 -53 82 -130 82c-58 0 -143 -23 -198 -50l18 143c45 22 121 42 199 42
c145 0 251 -59 251 -223v-328c-71 -28 -162 -44 -245 -44zM291 671l-143 140h140l117 -140h-114z" />
    <glyph glyph-name="acircumflex" unicode="&#xe2;" horiz-adv-x="632" 
d="M422 130v114c-26 7 -64 12 -95 12c-71 0 -131 -18 -131 -72c0 -52 54 -70 123 -70c35 0 73 6 103 16zM317 -12c-141 0 -267 49 -267 187c0 126 109 191 262 191c30 0 68 -2 110 -8v8c0 64 -53 82 -130 82c-58 0 -143 -23 -198 -50l18 143c45 22 121 42 199 42
c145 0 251 -59 251 -223v-328c-71 -28 -162 -44 -245 -44zM399 811l133 -140h-117l-88 84l-91 -84h-117l135 140h145z" />
    <glyph glyph-name="adieresis" unicode="&#xe4;" horiz-adv-x="632" 
d="M422 130v114c-26 7 -64 12 -95 12c-71 0 -131 -18 -131 -72c0 -52 54 -70 123 -70c35 0 73 6 103 16zM317 -12c-141 0 -267 49 -267 187c0 126 109 191 262 191c30 0 68 -2 110 -8v8c0 64 -53 82 -130 82c-58 0 -143 -23 -198 -50l18 143c45 22 121 42 199 42
c145 0 251 -59 251 -223v-328c-71 -28 -162 -44 -245 -44zM201 800c43 0 75 -27 75 -67c0 -22 -9 -40 -23 -51c-14 -12 -32 -18 -52 -18c-39 0 -74 25 -74 69c0 40 32 67 74 67zM470 800c43 0 74 -27 74 -67c0 -22 -8 -40 -22 -51c-14 -12 -33 -18 -52 -18
c-40 0 -74 25 -74 69c0 40 32 67 74 67z" />
    <glyph glyph-name="atilde" unicode="&#xe3;" horiz-adv-x="632" 
d="M422 130v114c-26 7 -64 12 -95 12c-71 0 -131 -18 -131 -72c0 -52 54 -70 123 -70c35 0 73 6 103 16zM317 -12c-141 0 -267 49 -267 187c0 126 109 191 262 191c30 0 68 -2 110 -8v8c0 64 -53 82 -130 82c-58 0 -143 -23 -198 -50l18 143c45 22 121 42 199 42
c145 0 251 -59 251 -223v-328c-71 -28 -162 -44 -245 -44zM401 750c33 0 45 19 52 54h68c-7 -86 -53 -130 -112 -130c-66 0 -101 54 -148 54c-33 0 -44 -19 -50 -54h-69c6 80 52 130 113 130c67 0 99 -54 146 -54z" />
    <glyph glyph-name="aring" unicode="&#xe5;" horiz-adv-x="632" 
d="M422 130v114c-26 7 -64 12 -95 12c-71 0 -131 -18 -131 -72c0 -52 54 -70 123 -70c35 0 73 6 103 16zM317 -12c-141 0 -267 49 -267 187c0 126 109 191 262 191c30 0 68 -2 110 -8v8c0 64 -53 82 -130 82c-58 0 -143 -23 -198 -50l18 143c45 22 121 42 199 42
c145 0 251 -59 251 -223v-328c-71 -28 -162 -44 -245 -44zM332 848c58 0 105 -42 105 -100c0 -59 -46 -101 -105 -101s-107 42 -107 101c0 58 48 100 107 100zM332 804c-31 0 -58 -23 -58 -56c0 -34 27 -56 58 -56c30 0 56 22 56 56c0 33 -26 56 -56 56z" />
    <glyph glyph-name="ccedilla" unicode="&#xe7;" horiz-adv-x="558" 
d="M191 -210l-4 57c15 -6 54 -16 81 -16c31 0 64 7 64 35c0 29 -33 36 -68 36c-25 0 -51 -4 -65 -7l60 101c-134 31 -226 144 -226 289c0 170 128 298 302 298c77 0 138 -17 195 -46l-56 -126c-37 21 -81 35 -133 35c-97 0 -161 -65 -161 -161s64 -160 161 -160
c52 0 96 13 133 35l56 -127c-57 -29 -118 -45 -195 -45c-9 0 -17 1 -25 1l-27 -45c44 3 111 -9 111 -74c0 -67 -58 -93 -122 -93c-31 0 -52 3 -81 13z" />
    <glyph glyph-name="eacute" unicode="&#xe9;" horiz-adv-x="651" 
d="M346 125h15c59 0 135 22 165 50l62 -125c-60 -33 -135 -62 -246 -62c-178 0 -309 128 -309 297c0 174 133 298 299 298c173 0 298 -127 291 -344h-446c18 -77 82 -114 169 -114zM330 459c-75 0 -131 -44 -148 -104h294c-15 69 -70 104 -146 104zM517 811l-143 -140h-114
l118 140h139z" />
    <glyph glyph-name="egrave" unicode="&#xe8;" horiz-adv-x="651" 
d="M346 125h15c59 0 135 22 165 50l62 -125c-60 -33 -135 -62 -246 -62c-178 0 -309 128 -309 297c0 174 133 298 299 298c173 0 298 -127 291 -344h-446c18 -77 82 -114 169 -114zM330 459c-75 0 -131 -44 -148 -104h294c-15 69 -70 104 -146 104zM300 671l-143 140h140
l117 -140h-114z" />
    <glyph glyph-name="ecircumflex" unicode="&#xea;" horiz-adv-x="651" 
d="M346 125h15c59 0 135 22 165 50l62 -125c-60 -33 -135 -62 -246 -62c-178 0 -309 128 -309 297c0 174 133 298 299 298c173 0 298 -127 291 -344h-446c18 -77 82 -114 169 -114zM406 811l133 -140h-117l-88 84l-91 -84h-117l135 140h145zM330 459
c-75 0 -131 -44 -148 -104h294c-15 69 -70 104 -146 104z" />
    <glyph glyph-name="edieresis" unicode="&#xeb;" horiz-adv-x="651" 
d="M346 125h15c59 0 135 22 165 50l62 -125c-60 -33 -135 -62 -246 -62c-178 0 -309 128 -309 297c0 174 133 298 299 298c173 0 298 -127 291 -344h-446c18 -77 82 -114 169 -114zM330 459c-75 0 -131 -44 -148 -104h294c-15 69 -70 104 -146 104zM208 800
c43 0 75 -27 75 -67c0 -22 -9 -40 -23 -51c-14 -12 -32 -18 -52 -18c-39 0 -74 25 -74 69c0 40 32 67 74 67zM477 800c43 0 74 -27 74 -67c0 -22 -8 -40 -22 -51c-14 -12 -33 -18 -52 -18c-40 0 -74 25 -74 69c0 40 32 67 74 67z" />
    <glyph glyph-name="iacute" unicode="&#xed;" horiz-adv-x="301" 
d="M221 0h-140v563h140v-563zM316 811l-143 -140h-114l118 140h139z" />
    <glyph glyph-name="igrave" unicode="&#xec;" horiz-adv-x="301" 
d="M221 0h-140v563h140v-563zM124 671l-143 140h140l117 -140h-114z" />
    <glyph glyph-name="icircumflex" unicode="&#xee;" horiz-adv-x="301" 
d="M221 0h-140v563h140v-563zM224 811l133 -140h-117l-88 84l-91 -84h-117l135 140h145z" />
    <glyph glyph-name="idieresis" unicode="&#xef;" horiz-adv-x="301" 
d="M221 0h-140v563h140v-563zM16 800c43 0 75 -27 75 -67c0 -22 -9 -40 -23 -51c-14 -12 -32 -18 -52 -18c-39 0 -74 25 -74 69c0 40 32 67 74 67zM285 800c43 0 74 -27 74 -67c0 -22 -8 -40 -22 -51c-14 -12 -33 -18 -52 -18c-40 0 -74 25 -74 69c0 40 32 67 74 67z" />
    <glyph glyph-name="ntilde" unicode="&#xf1;" horiz-adv-x="664" 
d="M81 0v554c87 16 192 29 253 29c144 0 260 -46 260 -231v-352h-140v312c0 103 -43 134 -126 134c-30 0 -67 -4 -107 -11v-435h-140zM400 750c33 0 45 19 52 54h68c-7 -86 -53 -130 -112 -130c-66 0 -101 54 -148 54c-33 0 -44 -19 -50 -54h-69c6 80 52 130 113 130
c67 0 99 -54 146 -54z" />
    <glyph glyph-name="oacute" unicode="&#xf3;" horiz-adv-x="676" 
d="M338 -12c-173 0 -305 129 -305 297c0 167 132 298 305 298s305 -131 305 -298c0 -168 -132 -297 -305 -297zM338 125c98 0 158 71 158 160c0 88 -60 161 -158 161s-158 -73 -158 -161c0 -89 60 -160 158 -160zM545 811l-143 -140h-114l118 140h139z" />
    <glyph glyph-name="ograve" unicode="&#xf2;" horiz-adv-x="676" 
d="M338 -12c-173 0 -305 129 -305 297c0 167 132 298 305 298s305 -131 305 -298c0 -168 -132 -297 -305 -297zM338 125c98 0 158 71 158 160c0 88 -60 161 -158 161s-158 -73 -158 -161c0 -89 60 -160 158 -160zM299 671l-143 140h140l117 -140h-114z" />
    <glyph glyph-name="ocircumflex" unicode="&#xf4;" horiz-adv-x="676" 
d="M338 -12c-173 0 -305 129 -305 297c0 167 132 298 305 298s305 -131 305 -298c0 -168 -132 -297 -305 -297zM338 125c98 0 158 71 158 160c0 88 -60 161 -158 161s-158 -73 -158 -161c0 -89 60 -160 158 -160zM414 811l133 -140h-117l-88 84l-91 -84h-117l135 140h145z
" />
    <glyph glyph-name="odieresis" unicode="&#xf6;" horiz-adv-x="676" 
d="M338 -12c-173 0 -305 129 -305 297c0 167 132 298 305 298s305 -131 305 -298c0 -168 -132 -297 -305 -297zM338 125c98 0 158 71 158 160c0 88 -60 161 -158 161s-158 -73 -158 -161c0 -89 60 -160 158 -160zM203 800c43 0 75 -27 75 -67c0 -22 -9 -40 -23 -51
c-14 -12 -32 -18 -52 -18c-39 0 -74 25 -74 69c0 40 32 67 74 67zM472 800c43 0 74 -27 74 -67c0 -22 -8 -40 -22 -51c-14 -12 -33 -18 -52 -18c-40 0 -74 25 -74 69c0 40 32 67 74 67z" />
    <glyph glyph-name="otilde" unicode="&#xf5;" horiz-adv-x="676" 
d="M338 -12c-173 0 -305 129 -305 297c0 167 132 298 305 298s305 -131 305 -298c0 -168 -132 -297 -305 -297zM338 125c98 0 158 71 158 160c0 88 -60 161 -158 161s-158 -73 -158 -161c0 -89 60 -160 158 -160zM407 750c33 0 45 19 52 54h68c-7 -86 -53 -130 -112 -130
c-66 0 -101 54 -148 54c-33 0 -44 -19 -50 -54h-69c6 80 52 130 113 130c67 0 99 -54 146 -54z" />
    <glyph glyph-name="uacute" unicode="&#xfa;" horiz-adv-x="642" 
d="M421 139v424h140v-534c-81 -27 -144 -41 -241 -41c-144 0 -255 56 -255 231v344h140v-304c0 -103 32 -134 111 -134c31 0 64 3 105 14zM493 811l-143 -140h-114l118 140h139z" />
    <glyph glyph-name="ugrave" unicode="&#xf9;" horiz-adv-x="642" 
d="M421 139v424h140v-534c-81 -27 -144 -41 -241 -41c-144 0 -255 56 -255 231v344h140v-304c0 -103 32 -134 111 -134c31 0 64 3 105 14zM298 671l-143 140h140l117 -140h-114z" />
    <glyph glyph-name="ucircumflex" unicode="&#xfb;" horiz-adv-x="642" 
d="M421 139v424h140v-534c-81 -27 -144 -41 -241 -41c-144 0 -255 56 -255 231v344h140v-304c0 -103 32 -134 111 -134c31 0 64 3 105 14zM390 811l133 -140h-117l-88 84l-91 -84h-117l135 140h145z" />
    <glyph glyph-name="udieresis" unicode="&#xfc;" horiz-adv-x="642" 
d="M421 139v424h140v-534c-81 -27 -144 -41 -241 -41c-144 0 -255 56 -255 231v344h140v-304c0 -103 32 -134 111 -134c31 0 64 3 105 14zM178 800c43 0 75 -27 75 -67c0 -22 -9 -40 -23 -51c-14 -12 -32 -18 -52 -18c-39 0 -74 25 -74 69c0 40 32 67 74 67zM447 800
c43 0 74 -27 74 -67c0 -22 -8 -40 -22 -51c-14 -12 -33 -18 -52 -18c-40 0 -74 25 -74 69c0 40 32 67 74 67z" />
    <glyph glyph-name="germandbls" unicode="&#xdf;" horiz-adv-x="780" 
d="M220 0h-139v517c0 218 112 309 312 309c163 0 286 -72 286 -216c0 -70 -39 -133 -90 -157c71 -22 146 -89 146 -213c0 -177 -133 -252 -301 -252c-39 0 -99 5 -145 13l27 136c29 -7 65 -12 100 -12c87 0 172 24 172 123c0 92 -89 117 -201 117h-26v129h21
c100 0 150 29 150 94c0 64 -62 102 -146 102c-122 0 -166 -56 -166 -179v-511z" />
    <glyph glyph-name="acute" unicode="&#xb4;" horiz-adv-x="287" 
d="M272 811l-143 -140h-114l118 140h139z" />
    <glyph glyph-name="dieresis" unicode="&#xa8;" horiz-adv-x="447" 
d="M89 800c43 0 75 -27 75 -67c0 -22 -9 -40 -23 -51c-14 -12 -32 -18 -52 -18c-39 0 -74 25 -74 69c0 40 32 67 74 67zM358 800c43 0 74 -27 74 -67c0 -22 -8 -40 -22 -51c-14 -12 -33 -18 -52 -18c-40 0 -74 25 -74 69c0 40 32 67 74 67z" />
    <glyph glyph-name="AE" unicode="&#xc6;" horiz-adv-x="1093" 
d="M508 811h518v-134h-374v-193h339v-136h-339v-214h376v-134h-520v191h-230l-117 -191h-171zM508 563l-146 -237h146v237z" />
    <glyph glyph-name="Oslash" unicode="&#xd8;" horiz-adv-x="932" 
d="M45 12l101 115c-64 73 -101 171 -101 280c0 236 174 419 421 419c89 0 169 -24 234 -66l103 117l78 -64l-103 -118c69 -74 109 -175 109 -288c0 -237 -174 -419 -421 -419c-94 0 -177 26 -244 71l-98 -112zM735 407c0 70 -20 131 -54 177l-365 -416
c42 -28 93 -43 150 -43c154 0 269 112 269 282zM198 407c0 -66 17 -122 47 -167l361 412c-41 24 -88 37 -140 37c-153 0 -268 -112 -268 -282z" />
    <glyph glyph-name="infinity" unicode="&#x221e;" horiz-adv-x="946" 
d="M689 509c133 0 227 -86 227 -208c0 -124 -90 -210 -224 -210c-92 0 -159 50 -218 115c-59 -63 -128 -114 -220 -114c-134 0 -224 87 -224 209s92 208 228 208c92 0 160 -48 216 -107c59 64 122 107 215 107zM257 219c54 0 94 33 136 83c-37 43 -79 81 -133 81
s-95 -32 -95 -82c0 -45 39 -82 92 -82zM686 383c-53 0 -95 -39 -131 -81c39 -46 81 -83 135 -83c52 0 91 36 91 82s-37 82 -95 82z" />
    <glyph glyph-name="mu" unicode="&#xb5;" horiz-adv-x="675" 
d="M72 -215c7 43 11 90 11 154v624h140v-260c0 -119 40 -179 114 -179c76 0 117 64 117 179v260h140v-563h-125v99c-26 -61 -73 -106 -154 -110c-57 -1 -90 31 -107 72v-109c0 -67 -4 -123 -10 -167h-126z" />
    <glyph glyph-name="partialdiff" unicode="&#x2202;" horiz-adv-x="714" 
d="M357 -12c-168 0 -312 127 -312 297c0 157 117 300 282 300c17 0 34 -1 51 -4l-183 230h180l186 -248c68 -91 108 -172 108 -278c0 -174 -146 -297 -312 -297zM357 125c101 0 166 74 166 165c0 90 -66 164 -166 164s-167 -74 -167 -164c0 -91 67 -165 167 -165z" />
    <glyph glyph-name="summation" unicode="&#x2211;" horiz-adv-x="714" 
d="M30 -90l358 386l-358 385v130h654v-130h-488l359 -385l-359 -386h488v-130h-654v130z" />
    <glyph glyph-name="product" unicode="&#x220f;" horiz-adv-x="794" 
d="M221 -220h-140v1031h632v-1031h-140v901h-352v-901z" />
    <glyph glyph-name="pi" unicode="&#x3c0;" horiz-adv-x="814" 
d="M261 0h-140v433h-79v130h707v-130h-89v-232c0 -63 8 -70 67 -70h22v-131h-46c-144 0 -183 29 -183 154v279h-259v-433z" />
    <glyph glyph-name="integral" unicode="&#x222b;" horiz-adv-x="436" 
d="M288 591v-617c0 -135 -68 -194 -224 -194h-74v130h73c72 0 85 29 85 90v617c0 135 68 194 224 194h74v-130h-73c-72 0 -85 -29 -85 -90z" />
    <glyph glyph-name="ordfeminine" unicode="&#xaa;" horiz-adv-x="457" 
d="M287 526v68c-19 4 -47 7 -62 7c-45 0 -85 -8 -85 -40c0 -33 34 -44 79 -44c21 0 45 3 68 9zM217 429c-94 0 -177 33 -177 126c0 83 73 130 174 130c15 0 44 -2 73 -6v8c0 40 -37 47 -85 47c-34 0 -86 -14 -132 -33l10 94c35 14 86 29 133 29c97 0 169 -39 169 -148v-212
c-50 -19 -112 -35 -165 -35z" />
    <glyph glyph-name="ordmasculine" unicode="&#xba;" horiz-adv-x="467" 
d="M233 428c-114 0 -202 87 -202 198c0 109 88 198 202 198c115 0 203 -89 203 -198c0 -111 -88 -198 -203 -198zM233 521c65 0 104 44 104 105c0 57 -39 105 -104 105c-64 0 -103 -48 -103 -105c0 -61 39 -105 103 -105z" />
    <glyph glyph-name="Omega" unicode="&#x2126;" horiz-adv-x="931" 
d="M465 826c213 0 401 -121 401 -340c0 -159 -101 -274 -227 -304v-52h207v-130h-326v274c131 18 207 94 207 204c0 141 -118 216 -262 216c-143 0 -262 -75 -262 -216c0 -110 77 -186 207 -204v-274h-326v130h207v52c-126 30 -226 145 -226 304c0 219 187 340 400 340z" />
    <glyph glyph-name="ae" unicode="&#xe6;" horiz-adv-x="1020" 
d="M715 125h15c59 0 135 22 165 50l62 -125c-60 -33 -135 -62 -246 -62c-69 0 -127 19 -173 52c-64 -30 -140 -52 -221 -52c-141 0 -267 49 -267 187c0 126 109 191 262 191c30 0 68 -2 110 -8v8c0 64 -53 82 -130 82c-58 0 -143 -23 -198 -50l18 143c45 22 121 42 199 42
c89 0 155 -23 194 -78c48 49 116 78 196 78c173 0 298 -127 291 -344h-446c18 -77 82 -114 169 -114zM422 130v114c-26 7 -64 12 -95 12c-71 0 -131 -18 -131 -72c0 -52 54 -70 123 -70c35 0 73 6 103 16zM699 459c-75 0 -131 -44 -148 -104h294c-15 69 -70 104 -146 104z
" />
    <glyph glyph-name="oslash" unicode="&#xf8;" horiz-adv-x="676" 
d="M43 0l70 81c-50 52 -80 124 -80 204c0 167 132 298 305 298c63 0 121 -18 169 -48l74 85l63 -55l-74 -85c46 -52 73 -120 73 -195c0 -168 -132 -297 -305 -297c-59 0 -113 15 -159 41l-73 -84zM180 285c0 -36 9 -69 27 -95l207 238c-21 11 -47 18 -76 18
c-98 0 -158 -73 -158 -161zM338 125c98 0 158 71 158 160c0 31 -7 60 -21 85l-202 -233c19 -8 41 -12 65 -12z" />
    <glyph glyph-name="questiondown" unicode="&#xbf;" horiz-adv-x="568" 
d="M342 613c48 0 94 -32 94 -83s-46 -84 -94 -84s-95 33 -95 84s47 83 95 83zM345 -88c62 0 126 17 181 41l-18 -145c-45 -18 -99 -33 -177 -33c-161 0 -286 97 -286 249c0 141 102 221 222 249v91h140v-197h-12c-108 0 -203 -33 -203 -130c0 -78 79 -125 153 -125z" />
    <glyph glyph-name="exclamdown" unicode="&#xa1;" horiz-adv-x="349" 
d="M172 613c47 0 93 -31 93 -80s-46 -82 -93 -82c-46 0 -91 33 -91 82s45 80 91 80zM243 365v-585h-140v585h140z" />
    <glyph glyph-name="logicalnot" unicode="&#xac;" horiz-adv-x="712" 
d="M491 111v221h-445v130h585v-351h-140z" />
    <glyph glyph-name="radical" unicode="&#x221a;" horiz-adv-x="746" 
d="M20 232l213 79l153 -377l183 877h137l-215 -1016h-173l-162 373l-99 -36z" />
    <glyph glyph-name="Delta" unicode="&#x2206;" horiz-adv-x="822" 
d="M15 -1l396 830l396 -830h-792zM636 107l-225 473l-223 -473h448z" />
    <glyph glyph-name="Agrave" unicode="&#xc0;" horiz-adv-x="795" 
d="M485 811l300 -811h-151l-69 191h-336l-68 -191h-151l300 811h175zM397 663l-120 -337h240zM339 845l-143 140h140l117 -140h-114z" />
    <glyph glyph-name="Atilde" unicode="&#xc3;" horiz-adv-x="795" 
d="M485 811l300 -811h-151l-69 191h-336l-68 -191h-151l300 811h175zM397 663l-120 -337h240zM466 926c33 0 45 19 52 54h68c-7 -86 -53 -130 -112 -130c-66 0 -101 54 -148 54c-33 0 -44 -19 -50 -54h-69c6 80 52 130 113 130c67 0 99 -54 146 -54z" />
    <glyph glyph-name="Otilde" unicode="&#xd5;" horiz-adv-x="932" 
d="M887 407c0 -237 -174 -419 -421 -419s-421 182 -421 419c0 236 174 419 421 419s421 -183 421 -419zM735 407c0 170 -115 282 -269 282c-153 0 -268 -112 -268 -282s115 -282 268 -282c154 0 269 112 269 282zM533 926c33 0 45 19 52 54h68c-7 -86 -53 -130 -112 -130
c-66 0 -101 54 -148 54c-33 0 -44 -19 -50 -54h-69c6 80 52 130 113 130c67 0 99 -54 146 -54z" />
    <glyph glyph-name="OE" unicode="&#x152;" horiz-adv-x="1307" 
d="M722 0v77c-65 -56 -151 -89 -256 -89c-247 0 -421 182 -421 419c0 236 174 419 421 419c105 0 191 -33 256 -89v74h518v-134h-374v-193h339v-136h-339v-214h376v-134h-520zM735 407c0 170 -115 282 -269 282c-153 0 -268 -112 -268 -282s115 -282 268 -282
c154 0 269 112 269 282z" />
    <glyph glyph-name="oe" unicode="&#x153;" horiz-adv-x="1107" 
d="M802 125h15c59 0 135 22 165 50l62 -125c-60 -33 -135 -62 -246 -62c-101 0 -183 40 -236 106c-49 -65 -127 -106 -224 -106c-173 0 -305 129 -305 297c0 167 132 298 305 298c96 0 174 -41 223 -106c52 66 133 106 227 106c173 0 298 -127 291 -344h-446
c18 -77 82 -114 169 -114zM338 125c98 0 158 71 158 160c0 88 -60 161 -158 161s-158 -73 -158 -161c0 -89 60 -160 158 -160zM786 459c-75 0 -131 -44 -148 -104h294c-15 69 -70 104 -146 104z" />
    <glyph glyph-name="lozenge" unicode="&#x25ca;" horiz-adv-x="636" 
d="M320 651l-166 -274l166 -273l167 273zM19 377l301 474l296 -474l-296 -473z" />
    <glyph glyph-name="ydieresis" unicode="&#xff;" horiz-adv-x="643" 
d="M107 -200l-30 146c55 -24 143 -42 198 -42c86 0 147 28 147 94v12c-38 -8 -76 -12 -112 -12c-143 0 -245 46 -245 231v335h141v-295c0 -103 33 -134 111 -134c30 0 64 3 105 15v414h140v-521c0 -199 -70 -268 -293 -268c-44 0 -117 11 -162 25zM180 800
c43 0 75 -27 75 -67c0 -22 -9 -40 -23 -51c-14 -12 -32 -18 -52 -18c-39 0 -74 25 -74 69c0 40 32 67 74 67zM449 800c43 0 74 -27 74 -67c0 -22 -8 -40 -22 -51c-14 -12 -33 -18 -52 -18c-40 0 -74 25 -74 69c0 40 32 67 74 67z" />
    <glyph glyph-name="Ydieresis" unicode="&#x178;" horiz-adv-x="750" 
d="M375 446l193 365h167l-287 -507v-304h-145v304l-288 507h167zM242 983c43 0 75 -27 75 -67c0 -22 -9 -40 -23 -51c-14 -12 -32 -18 -52 -18c-39 0 -74 25 -74 69c0 40 32 67 74 67zM511 983c43 0 74 -27 74 -67c0 -22 -8 -40 -22 -51c-14 -12 -33 -18 -52 -18
c-40 0 -74 25 -74 69c0 40 32 67 74 67z" />
    <glyph glyph-name="fraction" unicode="&#x2044;" horiz-adv-x="650" 
d="M113 1h-143l567 810h143z" />
    <glyph glyph-name="fi" unicode="&#xfb01;" horiz-adv-x="810" 
d="M25 433v130h106v54c0 135 68 194 224 194h134v-130h-133c-72 0 -85 -29 -85 -90v-28h214v-130h-214v-433h-140v433h-106zM590 0v563h140v-563h-140zM660 651c-44 0 -82 26 -82 75c0 44 35 74 82 74s81 -30 81 -74c0 -45 -33 -75 -81 -75z" />
    <glyph glyph-name="fl" unicode="&#xfb02;" horiz-adv-x="811" 
d="M25 433v130h106v54c0 135 68 194 224 194h134v-130h-133c-72 0 -85 -29 -85 -90v-28h214v-130h-214v-433h-140v433h-106zM730 0h-140v811h140v-811z" />
    <glyph glyph-name="Acircumflex" unicode="&#xc2;" horiz-adv-x="795" 
d="M485 811l300 -811h-151l-69 191h-336l-68 -191h-151l300 811h175zM397 663l-120 -337h240zM471 985l133 -140h-117l-88 84l-91 -84h-117l135 140h145z" />
    <glyph glyph-name="Ecircumflex" unicode="&#xca;" horiz-adv-x="685" 
d="M100 0v811h518v-134h-374v-193h339v-136h-339v-214h376v-134h-520zM433 985l133 -140h-117l-88 84l-91 -84h-117l135 140h145z" />
    <glyph glyph-name="Aacute" unicode="&#xc1;" horiz-adv-x="795" 
d="M485 811l300 -811h-151l-69 191h-336l-68 -191h-151l300 811h175zM397 663l-120 -337h240zM582 985l-143 -140h-114l118 140h139z" />
    <glyph glyph-name="Edieresis" unicode="&#xcb;" horiz-adv-x="685" 
d="M100 0v811h518v-134h-374v-193h339v-136h-339v-214h376v-134h-520zM220 983c43 0 75 -27 75 -67c0 -22 -9 -40 -23 -51c-14 -12 -32 -18 -52 -18c-39 0 -74 25 -74 69c0 40 32 67 74 67zM489 983c43 0 74 -27 74 -67c0 -22 -8 -40 -22 -51c-14 -12 -33 -18 -52 -18
c-40 0 -74 25 -74 69c0 40 32 67 74 67z" />
    <glyph glyph-name="Egrave" unicode="&#xc8;" horiz-adv-x="685" 
d="M100 0v811h518v-134h-374v-193h339v-136h-339v-214h376v-134h-520zM311 845l-143 140h140l117 -140h-114z" />
    <glyph glyph-name="Iacute" unicode="&#xcd;" horiz-adv-x="344" 
d="M244 0h-144v811h144v-811zM353 985l-143 -140h-114l118 140h139z" />
    <glyph glyph-name="Icircumflex" unicode="&#xce;" horiz-adv-x="344" 
d="M244 0h-144v811h144v-811zM247 985l133 -140h-117l-88 84l-91 -84h-117l135 140h145z" />
    <glyph glyph-name="Idieresis" unicode="&#xcf;" horiz-adv-x="344" 
d="M244 0h-144v811h144v-811zM37 983c43 0 75 -27 75 -67c0 -22 -9 -40 -23 -51c-14 -12 -32 -18 -52 -18c-39 0 -74 25 -74 69c0 40 32 67 74 67zM306 983c43 0 74 -27 74 -67c0 -22 -8 -40 -22 -51c-14 -12 -33 -18 -52 -18c-40 0 -74 25 -74 69c0 40 32 67 74 67z" />
    <glyph glyph-name="Igrave" unicode="&#xcc;" horiz-adv-x="344" 
d="M244 0h-144v811h144v-811zM115 845l-143 140h140l117 -140h-114z" />
    <glyph glyph-name="Oacute" unicode="&#xd3;" horiz-adv-x="932" 
d="M887 407c0 -237 -174 -419 -421 -419s-421 182 -421 419c0 236 174 419 421 419s421 -183 421 -419zM735 407c0 170 -115 282 -269 282c-153 0 -268 -112 -268 -282s115 -282 268 -282c154 0 269 112 269 282zM662 985l-143 -140h-114l118 140h139z" />
    <glyph glyph-name="Ocircumflex" unicode="&#xd4;" horiz-adv-x="932" 
d="M887 407c0 -237 -174 -419 -421 -419s-421 182 -421 419c0 236 174 419 421 419s421 -183 421 -419zM735 407c0 170 -115 282 -269 282c-153 0 -268 -112 -268 -282s115 -282 268 -282c154 0 269 112 269 282zM540 984l133 -140h-117l-88 84l-91 -84h-117l135 140h145z
" />
    <glyph glyph-name="apple" unicode="&#xf8ff;" horiz-adv-x="855" 
d="M629 161c-83 15 -145 25 -217 25c-117 0 -189 -24 -241 -99l-27 11c0 152 107 218 281 218c-73 41 -130 80 -220 144c28 52 41 79 66 129h10c155 -139 212 -181 404 -299zM398 -17c-33 5 -54 7 -76 5c41 -78 61 -155 61 -155l-62 -96h-12c-22 83 -45 146 -88 239
c4 62 35 114 72 130c43 1 92 -2 158 -16zM593 82c14 -77 34 -164 67 -249l-73 -96h-10c-17 66 -25 107 -34 153l-36 -39h-9c-33 36 -67 86 -67 98c0 41 48 139 138 149z" />
    <glyph glyph-name="Ograve" unicode="&#xd2;" horiz-adv-x="932" 
d="M887 407c0 -237 -174 -419 -421 -419s-421 182 -421 419c0 236 174 419 421 419s421 -183 421 -419zM735 407c0 170 -115 282 -269 282c-153 0 -268 -112 -268 -282s115 -282 268 -282c154 0 269 112 269 282zM407 845l-143 140h140l117 -140h-114z" />
    <glyph glyph-name="Uacute" unicode="&#xda;" horiz-adv-x="876" 
d="M438 -12c-253 0 -348 145 -348 330v493h144v-460c0 -149 53 -227 204 -227c150 0 204 78 204 227v460h144v-493c0 -185 -95 -330 -348 -330zM612 985l-143 -140h-114l118 140h139z" />
    <glyph glyph-name="Ucircumflex" unicode="&#xdb;" horiz-adv-x="876" 
d="M438 -12c-253 0 -348 145 -348 330v493h144v-460c0 -149 53 -227 204 -227c150 0 204 78 204 227v460h144v-493c0 -185 -95 -330 -348 -330zM513 985l133 -140h-117l-88 84l-91 -84h-117l135 140h145z" />
    <glyph glyph-name="Ugrave" unicode="&#xd9;" horiz-adv-x="876" 
d="M438 -12c-253 0 -348 145 -348 330v493h144v-460c0 -149 53 -227 204 -227c150 0 204 78 204 227v460h144v-493c0 -185 -95 -330 -348 -330zM418 845l-143 140h140l117 -140h-114z" />
    <glyph glyph-name="dotlessi" unicode="&#x131;" horiz-adv-x="301" 
d="M221 0h-140v563h140v-563z" />
    <glyph glyph-name="circumflex" unicode="&#x2c6;" horiz-adv-x="443" 
d="M295 811l133 -140h-117l-88 84l-91 -84h-117l135 140h145z" />
    <glyph glyph-name="tilde" unicode="&#x2dc;" horiz-adv-x="409" 
d="M274 750c33 0 45 19 52 54h68c-7 -86 -53 -130 -112 -130c-66 0 -101 54 -148 54c-33 0 -44 -19 -50 -54h-69c6 80 52 130 113 130c67 0 99 -54 146 -54z" />
    <glyph glyph-name="macron" unicode="&#xaf;" horiz-adv-x="324" 
d="M309 694h-294v86h294v-86z" />
    <glyph glyph-name="breve" unicode="&#x2d8;" horiz-adv-x="376" 
d="M361 811c-7 -97 -71 -149 -174 -149c-100 0 -166 52 -172 149h73c6 -58 50 -77 100 -77c49 0 95 19 101 77h72z" />
    <glyph glyph-name="dotaccent" unicode="&#x2d9;" horiz-adv-x="178" 
d="M89 800c43 0 75 -27 75 -67c0 -22 -9 -40 -23 -51c-14 -12 -32 -18 -52 -18c-39 0 -74 25 -74 69c0 40 32 67 74 67z" />
    <glyph glyph-name="ring" unicode="&#x2da;" horiz-adv-x="242" 
d="M122 848c58 0 105 -42 105 -100c0 -59 -46 -101 -105 -101s-107 42 -107 101c0 58 48 100 107 100zM122 804c-31 0 -58 -23 -58 -56c0 -34 27 -56 58 -56c30 0 56 22 56 56c0 33 -26 56 -56 56z" />
    <glyph glyph-name="cedilla" unicode="&#xb8;" horiz-adv-x="252" 
d="M24 -210l-4 57c15 -6 54 -16 81 -16c31 0 64 7 64 35c0 29 -33 36 -68 36c-25 0 -51 -4 -65 -7l63 106h55l-34 -57c44 3 111 -9 111 -74c0 -67 -58 -93 -122 -93c-31 0 -52 3 -81 13z" />
    <glyph glyph-name="hungarumlaut" unicode="&#x2dd;" horiz-adv-x="516" 
d="M272 811l-143 -140h-114l118 140h139zM501 811l-142 -140h-115l117 140h140z" />
    <glyph glyph-name="ogonek" unicode="&#x2db;" horiz-adv-x="268" 
d="M112 1l133 -1c-59 -29 -106 -56 -106 -93c0 -29 28 -43 65 -43c18 0 35 3 49 7v-70c-21 -5 -52 -8 -83 -8c-74 0 -155 22 -155 97c0 48 47 90 97 111z" />
    <glyph glyph-name="caron" unicode="&#x2c7;" horiz-adv-x="443" 
d="M155 671l-140 140h110l95 -85l97 85h111l-142 -140h-131z" />
    <glyph glyph-name="currency" unicode="&#xa4;" horiz-adv-x="578" 
d="M289 550c64 0 110 -19 141 -44l62 57l74 -74l-60 -55c22 -33 38 -77 38 -134s-16 -101 -38 -134l60 -55l-74 -74l-62 57c-31 -25 -77 -44 -141 -44s-110 19 -141 44l-62 -57l-74 74l60 55c-22 33 -38 77 -38 134s16 101 38 134l-60 55l74 74l62 -57c31 25 77 44 141 44z
M289 146c89 0 159 68 159 154c0 91 -67 154 -159 154s-159 -63 -159 -154c0 -86 69 -154 159 -154z" />
    <glyph glyph-name="acute.case" horiz-adv-x="317" 
d="M287 985l-143 -140h-114l118 140h139z" />
    <glyph glyph-name="circumflex.case" horiz-adv-x="473" 
d="M310 985l133 -140h-117l-88 84l-91 -84h-117l135 140h145z" />
    <glyph glyph-name="dieresis.case" horiz-adv-x="477" 
d="M104 983c43 0 75 -27 75 -67c0 -22 -9 -40 -23 -51c-14 -12 -32 -18 -52 -18c-39 0 -74 25 -74 69c0 40 32 67 74 67zM373 983c43 0 74 -27 74 -67c0 -22 -8 -40 -22 -51c-14 -12 -33 -18 -52 -18c-40 0 -74 25 -74 69c0 40 32 67 74 67z" />
    <glyph glyph-name="grave.case" horiz-adv-x="317" 
d="M173 845l-143 140h140l117 -140h-114z" />
    <glyph glyph-name="ring.case" horiz-adv-x="272" 
d="M137 1046c58 0 105 -42 105 -100c0 -59 -46 -101 -105 -101s-107 42 -107 101c0 58 48 100 107 100zM137 1002c-31 0 -58 -23 -58 -56c0 -34 27 -56 58 -56c30 0 56 22 56 56c0 33 -26 56 -56 56z" />
    <glyph glyph-name="tilde.case" horiz-adv-x="439" 
d="M289 926c33 0 45 19 52 54h68c-7 -86 -53 -130 -112 -130c-66 0 -101 54 -148 54c-33 0 -44 -19 -50 -54h-69c6 80 52 130 113 130c67 0 99 -54 146 -54z" />
    <glyph glyph-name="cedilla.case" horiz-adv-x="267" 
d="M34 -210l-4 57c15 -6 54 -16 81 -16c31 0 64 7 64 35c0 29 -33 36 -68 36c-25 0 -51 -4 -65 -7l63 106h55l-34 -57c44 3 111 -9 111 -74c0 -67 -58 -93 -122 -93c-31 0 -52 3 -81 13z" />
    <glyph glyph-name="caron.case" horiz-adv-x="473" 
d="M170 845l-140 140h110l95 -85l97 85h111l-142 -140h-131z" />
    <glyph glyph-name="macron.case" horiz-adv-x="354" 
d="M324 871h-294v86h294v-86z" />
    <glyph glyph-name="breve.case" horiz-adv-x="406" 
d="M376 994c-7 -97 -71 -149 -174 -149c-100 0 -166 52 -172 149h73c6 -58 50 -77 100 -77c49 0 95 19 101 77h72z" />
    <glyph glyph-name="dotaccent.case" horiz-adv-x="209" 
d="M104 983c43 0 75 -27 75 -67c0 -22 -9 -40 -23 -51c-14 -12 -32 -18 -52 -18c-39 0 -74 25 -74 69c0 40 32 67 74 67z" />
    <glyph glyph-name="hungarumlaut.case" horiz-adv-x="546" 
d="M287 985l-143 -140h-114l118 140h139zM516 985l-142 -140h-115l117 140h140z" />
    <glyph glyph-name="zero.ltn" horiz-adv-x="688" 
d="M344 126c92 0 140 80 140 217s-48 217 -140 217s-141 -80 -141 -217s49 -217 141 -217zM344 -11c-188 0 -286 148 -286 354s98 354 286 354s286 -148 286 -354s-98 -354 -286 -354z" />
    <glyph glyph-name="one..ltn" horiz-adv-x="400" 
d="M177 0v523l-157 -35v128l297 66v-682h-140z" />
    <glyph glyph-name="two..ltn" horiz-adv-x="606" 
d="M267 560c-61 0 -110 -23 -156 -59l-63 123c60 45 149 73 236 73c138 0 254 -63 254 -199c0 -130 -100 -238 -280 -368h287v-130h-499v125c168 122 344 248 344 345c0 62 -57 90 -123 90z" />
    <glyph glyph-name="three..ltn" horiz-adv-x="611" 
d="M267 -11c-84 0 -182 28 -242 72l62 125c46 -37 103 -60 163 -60c78 0 149 27 149 85c0 62 -66 74 -160 74h-23v132h21c99 0 145 10 145 64c0 50 -55 79 -129 79c-60 0 -115 -23 -161 -59l-62 124c60 44 153 72 238 72c152 0 259 -71 259 -191c0 -69 -38 -130 -85 -150
c60 -22 103 -76 103 -163c0 -131 -116 -204 -278 -204z" />
    <glyph glyph-name="four..ltn" horiz-adv-x="676" 
d="M380 0v155h-343v129l304 390h179v-389h102v-130h-102v-155h-140zM180 285h200v260z" />
    <glyph glyph-name="five..ltn" horiz-adv-x="650" 
d="M309 -11c-94 0 -185 27 -259 72l63 126c46 -37 120 -60 180 -60c73 0 146 23 146 97c0 71 -62 96 -143 96c-64 0 -148 -19 -201 -38l48 392h404v-130h-291l-13 -103c28 5 57 7 86 7c127 0 255 -51 255 -226c0 -151 -126 -233 -275 -233z" />
    <glyph glyph-name="six..ltn" horiz-adv-x="626" 
d="M313 -11c-139 0 -264 102 -264 249c0 97 38 171 95 245l146 191h180l-153 -185c9 1 18 2 27 2c111 0 232 -97 232 -253c0 -146 -124 -249 -263 -249zM313 126c73 0 118 52 118 117c0 64 -45 116 -118 116c-74 0 -119 -52 -119 -116c0 -65 45 -117 119 -117z" />
    <glyph glyph-name="seven..ltn" horiz-adv-x="593" 
d="M54 0l337 545h-354v129h511v-129l-326 -545h-168z" />
    <glyph glyph-name="eight..ltn" horiz-adv-x="674" 
d="M337 697c125 0 250 -61 250 -189c0 -67 -41 -130 -80 -148c50 -23 101 -81 101 -168c0 -145 -144 -203 -271 -203s-271 58 -271 203c0 87 51 145 101 168c-39 18 -80 81 -80 148c0 128 125 189 250 189zM337 299c-74 0 -124 -34 -124 -87c0 -52 51 -86 124 -86
s124 34 124 86c0 53 -50 87 -124 87zM337 560c-60 0 -107 -27 -107 -71c0 -38 40 -71 107 -71s106 33 106 71c0 44 -46 71 -106 71z" />
    <glyph glyph-name="nine..ltn" horiz-adv-x="626" 
d="M313 697c139 0 263 -102 263 -249c0 -97 -39 -169 -94 -245l-146 -203h-180l152 198c-8 -2 -18 -2 -27 -2c-110 0 -232 96 -232 252c0 146 124 249 264 249zM313 560c-74 0 -119 -51 -119 -116s45 -117 119 -117c73 0 118 52 118 117s-44 116 -118 116z" />
    <glyph glyph-name="uni064A.ss01" horiz-adv-x="1053" 
d="M371 -125c-119 0 -193 24 -254 82c-49 46 -67 126 -67 207v219h140v-202c0 -59 11 -102 42 -128c34 -29 90 -38 149 -38h146v282c0 96 26 165 86 213c46 36 114 53 191 53h189v-563h-140v423h-64c-35 0 -62 -7 -85 -25s-37 -58 -37 -92v-431h-296zM321 -308
c-42 0 -78 25 -78 71c0 43 34 72 78 72s78 -29 78 -72c0 -46 -36 -71 -78 -71zM538 -308c-42 0 -78 25 -78 71c0 43 34 72 78 72c45 0 78 -29 78 -72c0 -46 -36 -71 -78 -71z" />
    <glyph glyph-name="uni064A.fina.ss01" horiz-adv-x="1081" 
d="M371 -125c-119 0 -193 24 -254 82c-49 46 -67 126 -67 207v219h140v-202c0 -59 11 -102 42 -128c34 -29 90 -38 149 -38h146v282c0 96 26 165 86 213c46 36 114 53 191 53h189v-423h107v-140h-247v423h-64c-35 0 -62 -7 -85 -25s-37 -58 -37 -92v-431h-296zM321 -308
c-42 0 -78 25 -78 71c0 43 34 72 78 72s78 -29 78 -72c0 -46 -36 -71 -78 -71zM538 -308c-42 0 -78 25 -78 71c0 43 34 72 78 72c45 0 78 -29 78 -72c0 -46 -36 -71 -78 -71z" />
    </font>
</defs>
</svg>
